  0
SECTION
  2
HEADER
  9
$ACADVER
  1
AC1018
  9
$ACADMAINTVER
 70
   104
  9
$DWGCODEPAGE
  3
ANSI_1252
  9
$CUSTOMPROPERTYTAG
  1
Manager
  9
$CUSTOMPROPERTY
  1

  9
$CUSTOMPROPERTYTAG
  1
Company
  9
$CUSTOMPROPERTY
  1

  9
$CUSTOMPROPERTYTAG
  1
Category
  9
$CUSTOMPROPERTY
  1

  9
$CUSTOMPROPERTYTAG
  1
Part Number
  9
$CUSTOMPROPERTY
  1
0187-107529
  9
$CUSTOMPROPERTYTAG
  1
Description
  9
$CUSTOMPROPERTY
  1
Waste Bin
  9
$CUSTOMPROPERTYTAG
  1
Project
  9
$CUSTOMPROPERTY
  1

  9
$CUSTOMPROPERTYTAG
  1
Designer
  9
$CUSTOMPROPERTY
  1

  9
$CUSTOMPROPERTYTAG
  1
Engineer
  9
$CUSTOMPROPERTY
  1

  9
$CUSTOMPROPERTYTAG
  1
Authority
  9
$CUSTOMPROPERTY
  1

  9
$CUSTOMPROPERTYTAG
  1
Cost Center
  9
$CUSTOMPROPERTY
  1

  9
$CUSTOMPROPERTYTAG
  1
Vendor
  9
$CUSTOMPROPERTY
  1

  9
$CUSTOMPROPERTYTAG
  1
User Status
  9
$CUSTOMPROPERTY
  1

  9
$CUSTOMPROPERTYTAG
  1
Design Status
  9
$CUSTOMPROPERTY
  1
WorkInProgress
  9
$CUSTOMPROPERTYTAG
  1
Checked by
  9
$CUSTOMPROPERTY
  1

  9
$CUSTOMPROPERTYTAG
  1
Engr Approved by
  9
$CUSTOMPROPERTY
  1

  9
$CUSTOMPROPERTYTAG
  1
Mfg Approved by
  9
$CUSTOMPROPERTY
  1

  9
$CUSTOMPROPERTYTAG
  1
Departement
  9
$CUSTOMPROPERTY
  1
FRK-Marketing
  9
$CUSTOMPROPERTYTAG
  1
Project
  9
$CUSTOMPROPERTY
  1
Rodan (RODX)
  9
$CUSTOMPROPERTYTAG
  1
Collection
  9
$CUSTOMPROPERTY
  1
RODX605
  9
$CUSTOMPROPERTYTAG
  1
Category
  9
$CUSTOMPROPERTY
  1
CAD-Drawings
  9
$CUSTOMPROPERTYTAG
  1
Document_Number
  9
$CUSTOMPROPERTY
  1
0187-107529
  9
$CUSTOMPROPERTYTAG
  1
Unit
  9
$CUSTOMPROPERTY
  1
mm
  9
$CUSTOMPROPERTYTAG
  1
Scale
  9
$CUSTOMPROPERTY
  1
NTS
  9
$CUSTOMPROPERTYTAG
  1
Tolerance
  9
$CUSTOMPROPERTY
  1
ISO 2768 m
  9
$CUSTOMPROPERTYTAG
  1
Drawn_By
  9
$CUSTOMPROPERTY
  1
SW015
  9
$CUSTOMPROPERTYTAG
  1
Drawn_Date
  9
$CUSTOMPROPERTY
  1
09/30/2009
  9
$CUSTOMPROPERTYTAG
  1
Modified_By
  9
$CUSTOMPROPERTY
  1
SW015
  9
$CUSTOMPROPERTYTAG
  1
Modified_Date
  9
$CUSTOMPROPERTY
  1
10/20/2009
  9
$CUSTOMPROPERTYTAG
  1
Revision_Index_1
  9
$CUSTOMPROPERTY
  1
D
  9
$CUSTOMPROPERTYTAG
  1
Revision_By_1
  9
$CUSTOMPROPERTY
  1
SW015
  9
$CUSTOMPROPERTYTAG
  1
Revision_Memo_1
  9
$CUSTOMPROPERTY
  1

  9
$CUSTOMPROPERTYTAG
  1
Revision_Titel_1
  9
$CUSTOMPROPERTY
  1

  9
$CUSTOMPROPERTYTAG
  1
Status
  9
$CUSTOMPROPERTY
  1

  9
$CUSTOMPROPERTYTAG
  1
ECN
  9
$CUSTOMPROPERTY
  1

  9
$CUSTOMPROPERTYTAG
  1
Quantity
  9
$CUSTOMPROPERTY
  1

  9
$CUSTOMPROPERTYTAG
  1
EAN
  9
$CUSTOMPROPERTY
  1
7612210067167
  9
$CUSTOMPROPERTYTAG
  1
FUN
  9
$CUSTOMPROPERTY
  1

  9
$CUSTOMPROPERTYTAG
  1
Part_number
  9
$CUSTOMPROPERTY
  1

  9
$CUSTOMPROPERTYTAG
  1
Title
  9
$CUSTOMPROPERTY
  1
Waste Bin
  9
$CUSTOMPROPERTYTAG
  1
Auxiliary_Remark1
  9
$CUSTOMPROPERTY
  1
RODX605
  9
$CUSTOMPROPERTYTAG
  1
Revision_Date_1
  9
$CUSTOMPROPERTY
  1
10/20/2009
  9
$INSBASE
 10
0.0
 20
0.0
 30
0.0
  9
$EXTMIN
 10
0.0
 20
0.0
 30
0.0
  9
$EXTMAX
 10
1470.0
 20
2079.0
 30
0.0
  9
$LIMMIN
 10
0.0
 20
0.0
  9
$LIMMAX
 10
1470.0
 20
2079.0
  9
$ORTHOMODE
 70
     0
  9
$REGENMODE
 70
     1
  9
$FILLMODE
 70
     1
  9
$QTEXTMODE
 70
     0
  9
$MIRRTEXT
 70
     0
  9
$LTSCALE
 40
7.0
  9
$ATTMODE
 70
     1
  9
$TEXTSIZE
 40
0.2
  9
$TRACEWID
 40
0.05
  9
$TEXTSTYLE
  7
Standard
  9
$CLAYER
  8
0
  9
$CELTYPE
  6
ByLayer
  9
$CECOLOR
 62
   256
  9
$CELTSCALE
 40
1.0
  9
$DISPSILH
 70
     0
  9
$DIMSCALE
 40
1.0
  9
$DIMASZ
 40
1.799999999999999
  9
$DIMEXO
 40
0.0625
  9
$DIMDLI
 40
0.38
  9
$DIMRND
 40
0.0
  9
$DIMDLE
 40
0.0
  9
$DIMEXE
 40
0.18
  9
$DIMTP
 40
0.0
  9
$DIMTM
 40
0.0
  9
$DIMTXT
 40
0.3048000037670135
  9
$DIMCEN
 40
0.09
  9
$DIMTSZ
 40
0.0
  9
$DIMTOL
 70
     0
  9
$DIMLIM
 70
     0
  9
$DIMTIH
 70
     1
  9
$DIMTOH
 70
     1
  9
$DIMSE1
 70
     0
  9
$DIMSE2
 70
     0
  9
$DIMTAD
 70
     0
  9
$DIMZIN
 70
     0
  9
$DIMBLK
  1

  9
$DIMASO
 70
     1
  9
$DIMSHO
 70
     1
  9
$DIMPOST
  1

  9
$DIMAPOST
  1

  9
$DIMALT
 70
     0
  9
$DIMALTD
 70
     2
  9
$DIMALTF
 40
25.4
  9
$DIMLFAC
 40
1.0
  9
$DIMTOFL
 70
     0
  9
$DIMTVP
 40
0.0
  9
$DIMTIX
 70
     0
  9
$DIMSOXD
 70
     0
  9
$DIMSAH
 70
     0
  9
$DIMBLK1
  1

  9
$DIMBLK2
  1

  9
$DIMSTYLE
  2
Standard
  9
$DIMCLRD
 70
     0
  9
$DIMCLRE
 70
     0
  9
$DIMCLRT
 70
     0
  9
$DIMTFAC
 40
1.0
  9
$DIMGAP
 40
0.09
  9
$DIMJUST
 70
     0
  9
$DIMSD1
 70
     0
  9
$DIMSD2
 70
     0
  9
$DIMTOLJ
 70
     1
  9
$DIMTZIN
 70
     0
  9
$DIMALTZ
 70
     0
  9
$DIMALTTZ
 70
     0
  9
$DIMUPT
 70
     0
  9
$DIMDEC
 70
     4
  9
$DIMTDEC
 70
     4
  9
$DIMALTU
 70
     2
  9
$DIMALTTD
 70
     2
  9
$DIMTXSTY
  7
Standard
  9
$DIMAUNIT
 70
     0
  9
$DIMADEC
 70
     0
  9
$DIMALTRND
 40
0.0
  9
$DIMAZIN
 70
     0
  9
$DIMDSEP
 70
    46
  9
$DIMATFIT
 70
     3
  9
$DIMFRAC
 70
     0
  9
$DIMLDRBLK
  1

  9
$DIMLUNIT
 70
     2
  9
$DIMLWD
 70
    -2
  9
$DIMLWE
 70
    -2
  9
$DIMTMOVE
 70
     0
  9
$LUNITS
 70
     2
  9
$LUPREC
 70
     4
  9
$SKETCHINC
 40
0.1
  9
$FILLETRAD
 40
0.0
  9
$AUNITS
 70
     0
  9
$AUPREC
 70
     0
  9
$MENU
  1
.
  9
$ELEVATION
 40
0.0
  9
$PELEVATION
 40
0.0
  9
$THICKNESS
 40
0.0
  9
$LIMCHECK
 70
     0
  9
$CHAMFERA
 40
0.0
  9
$CHAMFERB
 40
0.0
  9
$CHAMFERC
 40
0.0
  9
$CHAMFERD
 40
0.0
  9
$SKPOLY
 70
     0
  9
$TDCREATE
 40
2455125.468895509
  9
$TDUCREATE
 40
2455125.302228843
  9
$TDUPDATE
 40
2455125.468895509
  9
$TDUUPDATE
 40
2455125.302228843
  9
$TDINDWG
 40
0.0000182639
  9
$TDUSRTIMER
 40
0.0000182639
  9
$USRTIMER
 70
     1
  9
$ANGBASE
 50
0.0
  9
$ANGDIR
 70
     0
  9
$PDMODE
 70
     0
  9
$PDSIZE
 40
0.0
  9
$PLINEWID
 40
0.0
  9
$SPLFRAME
 70
     0
  9
$SPLINETYPE
 70
     6
  9
$SPLINESEGS
 70
     8
  9
$HANDSEED
  5
D48
  9
$SURFTAB1
 70
     6
  9
$SURFTAB2
 70
     6
  9
$SURFTYPE
 70
     6
  9
$SURFU
 70
     6
  9
$SURFV
 70
     6
  9
$UCSBASE
  2

  9
$UCSNAME
  2

  9
$UCSORG
 10
0.0
 20
0.0
 30
0.0
  9
$UCSXDIR
 10
1.0
 20
0.0
 30
0.0
  9
$UCSYDIR
 10
0.0
 20
1.0
 30
0.0
  9
$UCSORTHOREF
  2

  9
$UCSORTHOVIEW
 70
     0
  9
$UCSORGTOP
 10
0.0
 20
0.0
 30
0.0
  9
$UCSORGBOTTOM
 10
0.0
 20
0.0
 30
0.0
  9
$UCSORGLEFT
 10
0.0
 20
0.0
 30
0.0
  9
$UCSORGRIGHT
 10
0.0
 20
0.0
 30
0.0
  9
$UCSORGFRONT
 10
0.0
 20
0.0
 30
0.0
  9
$UCSORGBACK
 10
0.0
 20
0.0
 30
0.0
  9
$PUCSBASE
  2

  9
$PUCSNAME
  2

  9
$PUCSORG
 10
0.0
 20
0.0
 30
0.0
  9
$PUCSXDIR
 10
1.0
 20
0.0
 30
0.0
  9
$PUCSYDIR
 10
0.0
 20
1.0
 30
0.0
  9
$PUCSORTHOREF
  2

  9
$PUCSORTHOVIEW
 70
     0
  9
$PUCSORGTOP
 10
0.0
 20
0.0
 30
0.0
  9
$PUCSORGBOTTOM
 10
0.0
 20
0.0
 30
0.0
  9
$PUCSORGLEFT
 10
0.0
 20
0.0
 30
0.0
  9
$PUCSORGRIGHT
 10
0.0
 20
0.0
 30
0.0
  9
$PUCSORGFRONT
 10
0.0
 20
0.0
 30
0.0
  9
$PUCSORGBACK
 10
0.0
 20
0.0
 30
0.0
  9
$USERI1
 70
     0
  9
$USERI2
 70
     0
  9
$USERI3
 70
     0
  9
$USERI4
 70
     0
  9
$USERI5
 70
     0
  9
$USERR1
 40
0.0
  9
$USERR2
 40
0.0
  9
$USERR3
 40
0.0
  9
$USERR4
 40
0.0
  9
$USERR5
 40
0.0
  9
$WORLDVIEW
 70
     1
  9
$SHADEDGE
 70
     3
  9
$SHADEDIF
 70
    70
  9
$TILEMODE
 70
     1
  9
$MAXACTVP
 70
    64
  9
$PINSBASE
 10
0.0
 20
0.0
 30
0.0
  9
$PLIMCHECK
 70
     0
  9
$PEXTMIN
 10
0.0
 20
0.0
 30
0.0
  9
$PEXTMAX
 10
1470.0
 20
2079.0
 30
0.0
  9
$PLIMMIN
 10
0.0
 20
0.0
  9
$PLIMMAX
 10
1470.0
 20
2079.0
  9
$UNITMODE
 70
     0
  9
$VISRETAIN
 70
     1
  9
$PLINEGEN
 70
     0
  9
$PSLTSCALE
 70
     1
  9
$TREEDEPTH
 70
  3020
  9
$CMLSTYLE
  2
Standard
  9
$CMLJUST
 70
     0
  9
$CMLSCALE
 40
1.0
  9
$PROXYGRAPHICS
 70
     1
  9
$MEASUREMENT
 70
     1
  9
$CELWEIGHT
370
    -1
  9
$ENDCAPS
280
     0
  9
$JOINSTYLE
280
     0
  9
$LWDISPLAY
290
     0
  9
$INSUNITS
 70
     4
  9
$HYPERLINKBASE
  1

  9
$STYLESHEET
  1

  9
$XEDIT
290
     1
  9
$CEPSNTYPE
380
     0
  9
$PSTYLEMODE
290
     1
  9
$FINGERPRINTGUID
  2
{3900ED5F-0E09-472F-B3EC-032D23189522}
  9
$VERSIONGUID
  2
{EA814EEB-1B67-4A3F-8561-CE6CD8A71EF5}
  9
$EXTNAMES
290
     1
  9
$PSVPSCALE
 40
0.0
  9
$OLESTARTUP
290
     0
  9
$SORTENTS
280
   127
  9
$INDEXCTL
280
     0
  9
$HIDETEXT
280
     1
  9
$XCLIPFRAME
290
     0
  9
$HALOGAP
280
     0
  9
$OBSCOLOR
 70
   257
  9
$OBSLTYPE
280
     0
  9
$INTERSECTIONDISPLAY
280
     0
  9
$INTERSECTIONCOLOR
 70
   257
  9
$DIMASSOC
280
     1
  9
$PROJECTNAME
  1

  0
ENDSEC
  0
SECTION
  2
CLASSES
  0
CLASS
  1
ACDBDICTIONARYWDFLT
  2
AcDbDictionaryWithDefault
  3
ObjectDBX Classes
 90
        0
 91
        1
280
     0
281
     0
  0
CLASS
  1
MATERIAL
  2
AcDbMaterial
  3
ObjectDBX Classes
 90
     1153
 91
        3
280
     0
281
     0
  0
CLASS
  1
VISUALSTYLE
  2
AcDbVisualStyle
  3
ObjectDBX Classes
 90
     4095
 91
       16
280
     0
281
     0
  0
CLASS
  1
SCALE
  2
AcDbScale
  3
ObjectDBX Classes
 90
     1153
 91
       33
280
     0
281
     0
  0
CLASS
  1
TABLESTYLE
  2
AcDbTableStyle
  3
ObjectDBX Classes
 90
     4095
 91
        1
280
     0
281
     0
  0
CLASS
  1
MLEADERSTYLE
  2
AcDbMLeaderStyle
  3
ACDB_MLEADERSTYLE_CLASS
 90
     4095
 91
        1
280
     0
281
     0
  0
CLASS
  1
DICTIONARYVAR
  2
AcDbDictionaryVar
  3
ObjectDBX Classes
 90
        0
 91
        5
280
     0
281
     0
  0
CLASS
  1
CELLSTYLEMAP
  2
AcDbCellStyleMap
  3
ObjectDBX Classes
 90
     1152
 91
        1
280
     0
281
     0
  0
ENDSEC
  0
SECTION
  2
TABLES
  0
TABLE
  2
VPORT
  5
8
330
0
100
AcDbSymbolTable
 70
     1
  0
VPORT
  5
5F
330
8
100
AcDbSymbolTableRecord
100
AcDbViewportTableRecord
  2
*Active
 70
     0
 10
0.0
 20
0.0
 11
1.0
 21
1.0
 12
735.0
 22
1039.5
 13
0.0
 23
0.0
 14
1.0
 24
1.0
 15
0.0
 25
0.0
 16
0.0
 26
0.0
 36
1.0
 17
0.0
 27
0.0
 37
0.0
 40
2079.0
 41
0.7070707070707071
 42
50.0
 43
0.0
 44
0.0
 50
0.0
 51
0.0
 71
     0
 72
   100
 73
     1
 74
     1
 75
     0
 76
     0
 77
     0
 78
     0
281
     0
 65
     1
110
0.0
120
0.0
130
0.0
111
1.0
121
0.0
131
0.0
112
0.0
122
1.0
132
0.0
 79
     0
146
0.0
  0
ENDTAB
  0
TABLE
  2
LTYPE
  5
5
330
0
100
AcDbSymbolTable
 70
    62
  0
LTYPE
  5
63
330
5
100
AcDbSymbolTableRecord
100
AcDbLinetypeTableRecord
  2
ByBlock
 70
     0
  3

 72
    65
 73
     0
 40
0.0
  0
LTYPE
  5
64
330
5
100
AcDbSymbolTableRecord
100
AcDbLinetypeTableRecord
  2
ByLayer
 70
     0
  3

 72
    65
 73
     0
 40
0.0
  0
LTYPE
  5
65
330
5
100
AcDbSymbolTableRecord
100
AcDbLinetypeTableRecord
  2
Continuous
 70
     0
  3
Solid line
 72
    65
 73
     0
 40
0.0
  0
LTYPE
  5
7D
330
5
100
AcDbSymbolTableRecord
100
AcDbLinetypeTableRecord
  2
Section_View_Lines
 70
     0
  3
Section View Lines
 72
    65
 73
     4
 40
0.8406
 49
0.6614
 74
     0
 49
-0.0827
 74
     0
 49
0.0138
 74
     0
 49
-0.0827
 74
     0
  0
LTYPE
  5
7E
330
5
100
AcDbSymbolTableRecord
100
AcDbLinetypeTableRecord
  2
CHAIN
 70
     0
  3
Chain ____ _ ____ _ ____ _ ____ _ ____ _ ____
 72
    65
 73
     4
 40
0.3543
 49
0.2362
 74
     0
 49
-0.0295
 74
     0
 49
0.0591
 74
     0
 49
-0.0295
 74
     0
  0
LTYPE
  5
7F
330
5
100
AcDbSymbolTableRecord
100
AcDbLinetypeTableRecord
  2
DASH_DOT
 70
     0
  3
Dash dot _._._._._._._._._._._._._._._.
 72
    65
 73
     4
 40
0.37
 49
0.24
 74
     0
 49
-0.06
 74
     0
 49
0.01
 74
     0
 49
-0.06
 74
     0
  0
LTYPE
  5
80
330
5
100
AcDbSymbolTableRecord
100
AcDbLinetypeTableRecord
  2
DASH_DOUBLE_DOT
 70
     0
  3
Dash Double Dot __ __ . __ __ . __ __ . __ _
 72
    65
 73
     6
 40
0.4398
 49
0.24
 74
     0
 49
-0.06
 74
     0
 49
0.0098
 74
     0
 49
-0.06
 74
     0
 49
0.01
 74
     0
 49
-0.06
 74
     0
  0
LTYPE
  5
81
330
5
100
AcDbSymbolTableRecord
100
AcDbLinetypeTableRecord
  2
DASH_TRIPLE_DOT
 70
     0
  3
Dash Triple-Dot _ . . . _ . . . _ . . . _
 72
    65
 73
     8
 40
0.51
 49
0.24
 74
     0
 49
-0.06
 74
     0
 49
0.01
 74
     0
 49
-0.06
 74
     0
 49
0.01
 74
     0
 49
-0.06
 74
     0
 49
0.01
 74
     0
 49
-0.06
 74
     0
  0
LTYPE
  5
82
330
5
100
AcDbSymbolTableRecord
100
AcDbLinetypeTableRecord
  2
DASHED
 70
     0
  3
Dashed __ __ __ __ __ __ __ __ __ __ __ __ __ _
 72
    65
 73
     2
 40
0.2067
 49
0.1654
 74
     0
 49
-0.0413
 74
     0
  0
LTYPE
  5
83
330
5
100
AcDbSymbolTableRecord
100
AcDbLinetypeTableRecord
  2
DASHED_SPACE
 70
     0
  3
Dashed Space _._._._._._._._._._._._._._._.
 72
    65
 73
     2
 40
0.2067
 49
0.1654
 74
     0
 49
-0.0413
 74
     0
  0
LTYPE
  5
84
330
5
100
AcDbSymbolTableRecord
100
AcDbLinetypeTableRecord
  2
DOTTED
 70
     0
  3
Dotted . . . . . . . . . . . . . . . . . . . . 
 72
    65
 73
     2
 40
0.0482
 49
0.0069
 74
     0
 49
-0.0413
 74
     0
  0
LTYPE
  5
85
330
5
100
AcDbSymbolTableRecord
100
AcDbLinetypeTableRecord
  2
DOUBLE_DASH_CHAIN
 70
     0
  3
Double Dash Chain ___ _ _ ___ _ _ ___ _ _ ___ _
 72
    65
 73
     6
 40
1.240299999999999
 49
0.6614
 74
     0
 49
-0.0827
 74
     0
 49
0.1654
 74
     0
 49
-0.0827
 74
     0
 49
0.1654
 74
     0
 49
-0.0827
 74
     0
  0
LTYPE
  5
86
330
5
100
AcDbSymbolTableRecord
100
AcDbLinetypeTableRecord
  2
DOUBLE_DASH_DOT
 70
     0
  3
Double Dash Dot __ __ . __ __ . __ __ . __ _
 72
    65
 73
     6
 40
0.67
 49
0.24
 74
     0
 49
-0.06
 74
     0
 49
0.24
 74
     0
 49
-0.06
 74
     0
 49
0.01
 74
     0
 49
-0.06
 74
     0
  0
LTYPE
  5
87
330
5
100
AcDbSymbolTableRecord
100
AcDbLinetypeTableRecord
  2
DOUBLE_DASH_DOUBLE_DOT
 70
     0
  3
Double-dash double-dot _ _ . . _ _ . . _
 72
    65
 73
     8
 40
0.7400000000000001
 49
0.24
 74
     0
 49
-0.06
 74
     0
 49
0.24
 74
     0
 49
-0.06
 74
     0
 49
0.01
 74
     0
 49
-0.06
 74
     0
 49
0.01
 74
     0
 49
-0.06
 74
     0
  0
LTYPE
  5
88
330
5
100
AcDbSymbolTableRecord
100
AcDbLinetypeTableRecord
  2
DOUBLE_DASH_TRIPLE_DOT
 70
     0
  3
Double Dash Triple Dot __ __ . . . __ __ . . .
 72
    65
 73
    10
 40
0.8100000000000001
 49
0.24
 74
     0
 49
-0.06
 74
     0
 49
0.24
 74
     0
 49
-0.06
 74
     0
 49
0.01
 74
     0
 49
-0.06
 74
     0
 49
0.01
 74
     0
 49
-0.06
 74
     0
 49
0.01
 74
     0
 49
-0.06
 74
     0
  0
LTYPE
  5
89
330
5
100
AcDbSymbolTableRecord
100
AcDbLinetypeTableRecord
  2
LONG_DASH_DOTTED
 70
     0
  3
Long-Dash Dot ____ . ____ . ____ . ____ . _
 72
    65
 73
     4
 40
0.3001
 49
0.2362
 74
     0
 49
-0.0295
 74
     0
 49
0.0049
 74
     0
 49
-0.0295
 74
     0
  0
LTYPE
  5
8A
330
5
100
AcDbSymbolTableRecord
100
AcDbLinetypeTableRecord
  2
LONG_DASH_DOUBLE_DOT
 70
     0
  3
Long Dash Double Dot ____ . . ____ . . ____ . .
 72
    65
 73
     6
 40
0.3345
 49
0.2362
 74
     0
 49
-0.0295
 74
     0
 49
0.0049
 74
     0
 49
-0.0295
 74
     0
 49
0.0049
 74
     0
 49
-0.0295
 74
     0
  0
LTYPE
  5
8B
330
5
100
AcDbSymbolTableRecord
100
AcDbLinetypeTableRecord
  2
LONG_DASH_TRIPLE_DOT
 70
     0
  3
Long Dash Triple Dot ____ ... ____ ... ____
 72
    65
 73
     8
 40
0.75
 49
0.48
 74
     0
 49
-0.06
 74
     0
 49
0.01
 74
     0
 49
-0.06
 74
     0
 49
0.01
 74
     0
 49
-0.06
 74
     0
 49
0.01
 74
     0
 49
-0.06
 74
     0
  0
LTYPE
  5
8C
330
5
100
AcDbSymbolTableRecord
100
AcDbLinetypeTableRecord
  2
BORDER
 70
     0
  3
Border __ __ . __ __ . __ __ . __ __ . __ __ .
 72
    65
 73
     6
 40
44.45
 49
12.7
 74
     0
 49
-6.349999999999999
 74
     0
 49
12.7
 74
     0
 49
-6.349999999999999
 74
     0
 49
0.0
 74
     0
 49
-6.349999999999999
 74
     0
  0
LTYPE
  5
8D
330
5
100
AcDbSymbolTableRecord
100
AcDbLinetypeTableRecord
  2
BORDER2
 70
     0
  3
Border (.5x) __.__.__.__.__.__.__.__.__.__.__.
 72
    65
 73
     6
 40
22.225
 49
6.349999999999999
 74
     0
 49
-3.174999999999999
 74
     0
 49
6.349999999999999
 74
     0
 49
-3.174999999999999
 74
     0
 49
0.0
 74
     0
 49
-3.174999999999999
 74
     0
  0
LTYPE
  5
8E
330
5
100
AcDbSymbolTableRecord
100
AcDbLinetypeTableRecord
  2
BORDERX2
 70
     0
  3
Border (2x) ____  ____  .  ____  ____  .  ___
 72
    65
 73
     6
 40
88.9
 49
25.4
 74
     0
 49
-12.7
 74
     0
 49
25.4
 74
     0
 49
-12.7
 74
     0
 49
0.0
 74
     0
 49
-12.7
 74
     0
  0
LTYPE
  5
8F
330
5
100
AcDbSymbolTableRecord
100
AcDbLinetypeTableRecord
  2
CENTER
 70
     0
  3
Center ____ _ ____ _ ____ _ ____ _ ____ _ ____
 72
    65
 73
     4
 40
50.8
 49
31.75
 74
     0
 49
-6.349999999999999
 74
     0
 49
6.349999999999999
 74
     0
 49
-6.349999999999999
 74
     0
  0
LTYPE
  5
90
330
5
100
AcDbSymbolTableRecord
100
AcDbLinetypeTableRecord
  2
CENTER2
 70
     0
  3
Center (.5x) ___ _ ___ _ ___ _ ___ _ ___ _ ___
 72
    65
 73
     4
 40
28.575
 49
19.05
 74
     0
 49
-3.174999999999999
 74
     0
 49
3.174999999999999
 74
     0
 49
-3.174999999999999
 74
     0
  0
LTYPE
  5
91
330
5
100
AcDbSymbolTableRecord
100
AcDbLinetypeTableRecord
  2
CENTERX2
 70
     0
  3
Center (2x) ________  __  ________  __  _____
 72
    65
 73
     4
 40
101.6
 49
63.5
 74
     0
 49
-12.7
 74
     0
 49
12.7
 74
     0
 49
-12.7
 74
     0
  0
LTYPE
  5
92
330
5
100
AcDbSymbolTableRecord
100
AcDbLinetypeTableRecord
  2
DASHDOT2
 70
     0
  3
Dash dot (.5x) _._._._._._._._._._._._._._._.
 72
    65
 73
     4
 40
12.7
 49
6.349999999999999
 74
     0
 49
-3.174999999999999
 74
     0
 49
0.0
 74
     0
 49
-3.174999999999999
 74
     0
  0
LTYPE
  5
93
330
5
100
AcDbSymbolTableRecord
100
AcDbLinetypeTableRecord
  2
DASHDOTX2
 70
     0
  3
Dash dot (2x) ____  .  ____  .  ____  .  ___
 72
    65
 73
     4
 40
50.8
 49
25.4
 74
     0
 49
-12.7
 74
     0
 49
0.0
 74
     0
 49
-12.7
 74
     0
  0
LTYPE
  5
94
330
5
100
AcDbSymbolTableRecord
100
AcDbLinetypeTableRecord
  2
DASHED2
 70
     0
  3
Dashed (.5x) _ _ _ _ _ _ _ _ _ _ _ _ _ _ _ _ _
 72
    65
 73
     2
 40
9.524999999999998
 49
6.349999999999999
 74
     0
 49
-3.174999999999999
 74
     0
  0
LTYPE
  5
95
330
5
100
AcDbSymbolTableRecord
100
AcDbLinetypeTableRecord
  2
DASHEDX2
 70
     0
  3
Dashed (2x) ____  ____  ____  ____  ____  ___
 72
    65
 73
     2
 40
38.1
 49
25.4
 74
     0
 49
-12.7
 74
     0
  0
LTYPE
  5
96
330
5
100
AcDbSymbolTableRecord
100
AcDbLinetypeTableRecord
  2
DIVIDE
 70
     0
  3
Divide ____ . . ____ . . ____ . . ____ . . ____
 72
    65
 73
     6
 40
31.75
 49
12.7
 74
     0
 49
-6.349999999999999
 74
     0
 49
0.0
 74
     0
 49
-6.349999999999999
 74
     0
 49
0.0
 74
     0
 49
-6.349999999999999
 74
     0
  0
LTYPE
  5
97
330
5
100
AcDbSymbolTableRecord
100
AcDbLinetypeTableRecord
  2
DIVIDE2
 70
     0
  3
Divide (.5x) __..__..__..__..__..__..__..__.._
 72
    65
 73
     6
 40
15.875
 49
6.349999999999999
 74
     0
 49
-3.174999999999999
 74
     0
 49
0.0
 74
     0
 49
-3.174999999999999
 74
     0
 49
0.0
 74
     0
 49
-3.174999999999999
 74
     0
  0
LTYPE
  5
98
330
5
100
AcDbSymbolTableRecord
100
AcDbLinetypeTableRecord
  2
DIVIDEX2
 70
     0
  3
Divide (2x) ________  .  .  ________  .  .  _
 72
    65
 73
     6
 40
63.49999999999999
 49
25.4
 74
     0
 49
-12.7
 74
     0
 49
0.0
 74
     0
 49
-12.7
 74
     0
 49
0.0
 74
     0
 49
-12.7
 74
     0
  0
LTYPE
  5
99
330
5
100
AcDbSymbolTableRecord
100
AcDbLinetypeTableRecord
  2
DOT
 70
     0
  3
Dot . . . . . . . . . . . . . . . . . . . . . .
 72
    65
 73
     2
 40
6.349999999999999
 49
0.0
 74
     0
 49
-6.349999999999999
 74
     0
  0
LTYPE
  5
9A
330
5
100
AcDbSymbolTableRecord
100
AcDbLinetypeTableRecord
  2
DOT2
 70
     0
  3
Dot (.5x) .....................................
 72
    65
 73
     2
 40
3.174999999999999
 49
0.0
 74
     0
 49
-3.174999999999999
 74
     0
  0
LTYPE
  5
9B
330
5
100
AcDbSymbolTableRecord
100
AcDbLinetypeTableRecord
  2
DOTX2
 70
     0
  3
Dot (2x) .  .  .  .  .  .  .  .  .  .  .  .  . 
 72
    65
 73
     2
 40
12.7
 49
0.0
 74
     0
 49
-12.7
 74
     0
  0
LTYPE
  5
9C
330
5
100
AcDbSymbolTableRecord
100
AcDbLinetypeTableRecord
  2
HIDDEN
 70
     0
  3
Hidden __ __ __ __ __ __ __ __ __ __ __ __ __ _
 72
    65
 73
     2
 40
9.524999999999998
 49
6.349999999999999
 74
     0
 49
-3.174999999999999
 74
     0
  0
LTYPE
  5
9D
330
5
100
AcDbSymbolTableRecord
100
AcDbLinetypeTableRecord
  2
HIDDEN2
 70
     0
  3
Hidden (.5x) _ _ _ _ _ _ _ _ _ _ _ _ _ _ _ _ _
 72
    65
 73
     2
 40
4.762499999999999
 49
3.174999999999999
 74
     0
 49
-1.587499999999999
 74
     0
  0
LTYPE
  5
9E
330
5
100
AcDbSymbolTableRecord
100
AcDbLinetypeTableRecord
  2
HIDDENX2
 70
     0
  3
Hidden (2x) ____ ____ ____ ____ ____ ____ ____
 72
    65
 73
     2
 40
19.05
 49
12.7
 74
     0
 49
-6.349999999999999
 74
     0
  0
LTYPE
  5
9F
330
5
100
AcDbSymbolTableRecord
100
AcDbLinetypeTableRecord
  2
PHANTOM
 70
     0
  3
Phantom ______  __  __  ______  __  __  ______
 72
    65
 73
     6
 40
63.5
 49
31.75
 74
     0
 49
-6.349999999999999
 74
     0
 49
6.349999999999999
 74
     0
 49
-6.349999999999999
 74
     0
 49
6.349999999999999
 74
     0
 49
-6.349999999999999
 74
     0
  0
LTYPE
  5
A0
330
5
100
AcDbSymbolTableRecord
100
AcDbLinetypeTableRecord
  2
PHANTOM2
 70
     0
  3
Phantom (.5x) ___ _ _ ___ _ _ ___ _ _ ___ _ _
 72
    65
 73
     6
 40
31.75
 49
15.875
 74
     0
 49
-3.174999999999999
 74
     0
 49
3.174999999999999
 74
     0
 49
-3.174999999999999
 74
     0
 49
3.174999999999999
 74
     0
 49
-3.174999999999999
 74
     0
  0
LTYPE
  5
A1
330
5
100
AcDbSymbolTableRecord
100
AcDbLinetypeTableRecord
  2
PHANTOMX2
 70
     0
  3
Phantom (2x) ____________    ____    ____   _
 72
    65
 73
     6
 40
127.0
 49
63.5
 74
     0
 49
-12.7
 74
     0
 49
12.7
 74
     0
 49
-12.7
 74
     0
 49
12.7
 74
     0
 49
-12.7
 74
     0
  0
LTYPE
  5
A2
330
5
100
AcDbSymbolTableRecord
100
AcDbLinetypeTableRecord
  2
ACAD_ISO02W100
 70
     0
  3
ISO dash __ __ __ __ __ __ __ __ __ __ __ __ __
 72
    65
 73
     2
 40
15.0
 49
12.0
 74
     0
 49
-3.0
 74
     0
  0
LTYPE
  5
A3
330
5
100
AcDbSymbolTableRecord
100
AcDbLinetypeTableRecord
  2
ACAD_ISO03W100
 70
     0
  3
ISO dash space __    __    __    __    __    __
 72
    65
 73
     2
 40
30.0
 49
12.0
 74
     0
 49
-18.0
 74
     0
  0
LTYPE
  5
A4
330
5
100
AcDbSymbolTableRecord
100
AcDbLinetypeTableRecord
  2
ACAD_ISO04W100
 70
     0
  3
ISO long-dash dot ____ . ____ . ____ . ____ . _
 72
    65
 73
     4
 40
30.0
 49
24.0
 74
     0
 49
-3.0
 74
     0
 49
0.0
 74
     0
 49
-3.0
 74
     0
  0
LTYPE
  5
A5
330
5
100
AcDbSymbolTableRecord
100
AcDbLinetypeTableRecord
  2
ACAD_ISO05W100
 70
     0
  3
ISO long-dash double-dot ____ .. ____ .. ____ .
 72
    65
 73
     6
 40
33.0
 49
24.0
 74
     0
 49
-3.0
 74
     0
 49
0.0
 74
     0
 49
-3.0
 74
     0
 49
0.0
 74
     0
 49
-3.0
 74
     0
  0
LTYPE
  5
A6
330
5
100
AcDbSymbolTableRecord
100
AcDbLinetypeTableRecord
  2
ACAD_ISO06W100
 70
     0
  3
ISO long-dash triple-dot ____ ... ____ ... ____
 72
    65
 73
     8
 40
36.0
 49
24.0
 74
     0
 49
-3.0
 74
     0
 49
0.0
 74
     0
 49
-3.0
 74
     0
 49
0.0
 74
     0
 49
-3.0
 74
     0
 49
0.0
 74
     0
 49
-3.0
 74
     0
  0
LTYPE
  5
A7
330
5
100
AcDbSymbolTableRecord
100
AcDbLinetypeTableRecord
  2
ACAD_ISO07W100
 70
     0
  3
ISO dot . . . . . . . . . . . . . . . . . . . .
 72
    65
 73
     2
 40
3.0
 49
0.0
 74
     0
 49
-3.0
 74
     0
  0
LTYPE
  5
A8
330
5
100
AcDbSymbolTableRecord
100
AcDbLinetypeTableRecord
  2
ACAD_ISO08W100
 70
     0
  3
ISO long-dash short-dash ____ __ ____ __ ____ _
 72
    65
 73
     4
 40
36.0
 49
24.0
 74
     0
 49
-3.0
 74
     0
 49
6.0
 74
     0
 49
-3.0
 74
     0
  0
LTYPE
  5
A9
330
5
100
AcDbSymbolTableRecord
100
AcDbLinetypeTableRecord
  2
ACAD_ISO09W100
 70
     0
  3
ISO long-dash double-short-dash ____ __ __ ____
 72
    65
 73
     6
 40
45.0
 49
24.0
 74
     0
 49
-3.0
 74
     0
 49
6.0
 74
     0
 49
-3.0
 74
     0
 49
6.0
 74
     0
 49
-3.0
 74
     0
  0
LTYPE
  5
AA
330
5
100
AcDbSymbolTableRecord
100
AcDbLinetypeTableRecord
  2
ACAD_ISO10W100
 70
     0
  3
ISO dash dot __ . __ . __ . __ . __ . __ . __ .
 72
    65
 73
     4
 40
18.0
 49
12.0
 74
     0
 49
-3.0
 74
     0
 49
0.0
 74
     0
 49
-3.0
 74
     0
  0
LTYPE
  5
AB
330
5
100
AcDbSymbolTableRecord
100
AcDbLinetypeTableRecord
  2
ACAD_ISO11W100
 70
     0
  3
ISO double-dash dot __ __ . __ __ . __ __ . __ 
 72
    65
 73
     6
 40
33.0
 49
12.0
 74
     0
 49
-3.0
 74
     0
 49
12.0
 74
     0
 49
-3.0
 74
     0
 49
0.0
 74
     0
 49
-3.0
 74
     0
  0
LTYPE
  5
AC
330
5
100
AcDbSymbolTableRecord
100
AcDbLinetypeTableRecord
  2
ACAD_ISO12W100
 70
     0
  3
ISO dash double-dot __ . . __ . . __ . . __ . .
 72
    65
 73
     6
 40
21.0
 49
12.0
 74
     0
 49
-3.0
 74
     0
 49
0.0
 74
     0
 49
-3.0
 74
     0
 49
0.0
 74
     0
 49
-3.0
 74
     0
  0
LTYPE
  5
AD
330
5
100
AcDbSymbolTableRecord
100
AcDbLinetypeTableRecord
  2
ACAD_ISO13W100
 70
     0
  3
ISO double-dash double-dot __ __ . . __ __ . . 
 72
    65
 73
     8
 40
36.0
 49
12.0
 74
     0
 49
-3.0
 74
     0
 49
12.0
 74
     0
 49
-3.0
 74
     0
 49
0.0
 74
     0
 49
-3.0
 74
     0
 49
0.0
 74
     0
 49
-3.0
 74
     0
  0
LTYPE
  5
AE
330
5
100
AcDbSymbolTableRecord
100
AcDbLinetypeTableRecord
  2
ACAD_ISO14W100
 70
     0
  3
ISO dash triple-dot __ . . . __ . . . __ . . . 
 72
    65
 73
     8
 40
24.0
 49
12.0
 74
     0
 49
-3.0
 74
     0
 49
0.0
 74
     0
 49
-3.0
 74
     0
 49
0.0
 74
     0
 49
-3.0
 74
     0
 49
0.0
 74
     0
 49
-3.0
 74
     0
  0
LTYPE
  5
AF
330
5
100
AcDbSymbolTableRecord
100
AcDbLinetypeTableRecord
  2
ACAD_ISO15W100
 70
     0
  3
ISO double-dash triple-dot __ __ . . . __ __ . 
 72
    65
 73
    10
 40
39.0
 49
12.0
 74
     0
 49
-3.0
 74
     0
 49
12.0
 74
     0
 49
-3.0
 74
     0
 49
0.0
 74
     0
 49
-3.0
 74
     0
 49
0.0
 74
     0
 49
-3.0
 74
     0
 49
0.0
 74
     0
 49
-3.0
 74
     0
  0
LTYPE
  5
B2
330
5
100
AcDbSymbolTableRecord
100
AcDbLinetypeTableRecord
  2
FENCELINE1
 70
     0
  3
Fenceline circle ----0-----0----0-----0----0---
 72
    65
 73
     4
 40
36.83
 49
6.349999999999999
 74
     0
 49
-2.54
 74
     4
 75
   133
340
B1
 46
2.54
 50
0.0
 44
-2.54
 45
0.0
 49
-2.54
 74
     0
 49
25.4
 74
     0
  0
LTYPE
  5
B3
330
5
100
AcDbSymbolTableRecord
100
AcDbLinetypeTableRecord
  2
FENCELINE2
 70
     0
  3
Fenceline square ----[]-----[]----[]-----[]----
 72
    65
 73
     4
 40
36.83
 49
6.349999999999999
 74
     0
 49
-2.54
 74
     4
 75
   132
340
B1
 46
2.54
 50
0.0
 44
-2.54
 45
0.0
 49
-2.54
 74
     0
 49
25.4
 74
     0
  0
LTYPE
  5
B4
330
5
100
AcDbSymbolTableRecord
100
AcDbLinetypeTableRecord
  2
TRACKS
 70
     0
  3
Tracks -|-|-|-|-|-|-|-|-|-|-|-|-|-|-|-|-|-|-|-|
 72
    65
 73
     2
 40
7.62
 49
3.81
 74
     4
 75
   130
340
B1
 46
6.349999999999999
 50
0.0
 44
0.0
 45
0.0
 49
3.81
 74
     0
  0
LTYPE
  5
B5
330
5
100
AcDbSymbolTableRecord
100
AcDbLinetypeTableRecord
  2
BATTING
 70
     0
  3
Batting SSSSSSSSSSSSSSSSSSSSSSSSSSSSSSSSSSSSSSS
 72
    65
 73
     4
 40
10.16254
 49
0.00254
 74
     0
 49
-2.54
 74
     4
 75
   134
340
B1
 46
2.54
 50
0.0
 44
-2.54
 45
0.0
 49
-5.08
 74
     4
 75
   134
340
B1
 46
2.54
 50
180.0
 44
2.54
 45
0.0
 49
-2.54
 74
     0
  0
LTYPE
  5
B6
330
5
100
AcDbSymbolTableRecord
100
AcDbLinetypeTableRecord
  2
HOT_WATER_SUPPLY
 70
     0
  3
Hot water supply ---- HW ---- HW ---- HW ----
 72
    65
 73
     3
 40
22.86
 49
12.7
 74
     0
 49
-5.08
 74
     2
 75
     0
340
5D
 46
2.54
 50
0.0
 44
-2.54
 45
-1.27
  9
HW
 49
-5.08
 74
     0
  0
LTYPE
  5
B7
330
5
100
AcDbSymbolTableRecord
100
AcDbLinetypeTableRecord
  2
GAS_LINE
 70
     0
  3
Gas line ----GAS----GAS----GAS----GAS----GAS---
 72
    65
 73
     3
 40
24.13
 49
12.7
 74
     0
 49
-5.08
 74
     2
 75
     0
340
5D
 46
2.54
 50
0.0
 44
-2.54
 45
-1.27
  9
GAS
 49
-6.349999999999999
 74
     0
  0
LTYPE
  5
B8
330
5
100
AcDbSymbolTableRecord
100
AcDbLinetypeTableRecord
  2
ZIGZAG
 70
     0
  3
Zig zag /\/\/\/\/\/\/\/\/\/\/\/\/\/\/\/\/\/\/\/
 72
    65
 73
     4
 40
20.32254
 49
0.00254
 74
     0
 49
-5.08
 74
     4
 75
   131
340
B1
 46
5.08
 50
0.0
 44
-5.08
 45
0.0
 49
-10.16
 74
     4
 75
   131
340
B1
 46
5.08
 50
180.0
 44
5.08
 45
0.0
 49
-5.08
 74
     0
  0
LTYPE
  5
108
330
5
100
AcDbSymbolTableRecord
100
AcDbLinetypeTableRecord
  2
MarMittel
 70
     0
  3
_ _ 
 72
    65
 73
     4
 40
500.0001983642578
 49
263.1579895019531
 74
     0
 49
-78.94740295410156
 74
     0
 49
78.94740295410156
 74
     0
 49
-78.94740295410156
 74
     0
  0
LTYPE
  5
109
330
5
100
AcDbSymbolTableRecord
100
AcDbLinetypeTableRecord
  2
MarPhantom
 70
     0
  3
_ _ _ 
 72
    65
 73
     6
 40
789.4740142822265
 49
394.7369995117187
 74
     0
 49
-78.94740295410156
 74
     0
 49
78.94740295410156
 74
     0
 49
-78.94740295410156
 74
     0
 49
78.94740295410156
 74
     0
 49
-78.94740295410156
 74
     0
  0
LTYPE
  5
10A
330
5
100
AcDbSymbolTableRecord
100
AcDbLinetypeTableRecord
  2
MarVerdeckt
 70
     0
  3
_ 
 72
    65
 73
     2
 40
236.8424072265625
 49
157.8950042724609
 74
     0
 49
-78.94740295410156
 74
     0
  0
ENDTAB
  0
TABLE
  2
LAYER
  5
2
330
0
100
AcDbSymbolTable
 70
    81
  0
LAYER
  5
5C
330
2
100
AcDbSymbolTableRecord
100
AcDbLayerTableRecord
  2
0
 70
     0
 62
     7
  6
Continuous
370
    -3
390
F
  0
LAYER
  5
C9
330
2
100
AcDbSymbolTableRecord
100
AcDbLayerTableRecord
  2
Bemaßungen(DIN)
 70
     0
 62
     7
  6
Continuous
370
    25
390
F
  0
LAYER
  5
CF
330
2
100
AcDbSymbolTableRecord
100
AcDbLayerTableRecord
  2
Centerline(ISO)
 70
     0
 62
     7
  6
DASH_DOT
370
    25
390
F
  0
LAYER
  5
D5
330
2
100
AcDbSymbolTableRecord
100
AcDbLayerTableRecord
  2
Hatch
 70
     0
 62
     7
  6
Continuous
370
     9
390
F
  0
LAYER
  5
D8
330
2
100
AcDbSymbolTableRecord
100
AcDbLayerTableRecord
  2
Hidden Tangent Edges(ISO)
 70
     0
 62
     7
  6
DASHED
370
    35
390
F
  0
LAYER
  5
DF
330
2
100
AcDbSymbolTableRecord
100
AcDbLayerTableRecord
  2
MaVisibleEdge
 70
     0
 62
     7
  6
Continuous
370
    50
390
F
  0
LAYER
  5
E7
330
2
100
AcDbSymbolTableRecord
100
AcDbLayerTableRecord
  2
Phantom Lines(ISO)
 70
     0
 62
     7
  6
DOUBLE_DASH_CHAIN
370
    70
390
F
  0
LAYER
  5
EE
330
2
100
AcDbSymbolTableRecord
100
AcDbLayerTableRecord
  2
Sketch Geometry(DIN)
 70
     0
 62
     7
  6
Continuous
370
    50
390
F
  0
LAYER
  5
EF
330
2
100
AcDbSymbolTableRecord
100
AcDbLayerTableRecord
  2
Sketch Geometry(ISO)
 70
     0
 62
     7
  6
Continuous
370
    50
390
F
  0
LAYER
  5
F9
330
2
100
AcDbSymbolTableRecord
100
AcDbLayerTableRecord
  2
Symbols(ISO)
 70
     0
 62
     7
  6
Continuous
370
    25
390
F
  0
LAYER
  5
101
330
2
100
AcDbSymbolTableRecord
100
AcDbLayerTableRecord
  2
Visible Edges(DIN)
 70
     0
 62
     7
  6
Continuous
370
    50
390
F
  0
LAYER
  5
511
330
2
100
AcDbSymbolTableRecord
100
AcDbLayerTableRecord
  2
Defpoints
 70
     0
 62
     7
  6
Continuous
290
     0
370
    -3
390
F
  0
ENDTAB
  0
TABLE
  2
STYLE
  5
3
330
0
100
AcDbSymbolTable
 70
    27
  0
STYLE
  5
5D
330
3
100
AcDbSymbolTableRecord
100
AcDbTextStyleTableRecord
  2
Standard
 70
     0
 40
0.0
 41
1.0
 50
0.0
 71
     0
 42
0.2
  3
monotxt.shx
  4

  0
STYLE
  5
62
330
3
100
AcDbSymbolTableRecord
100
AcDbTextStyleTableRecord
  2
Annotative
 70
     0
 40
0.0
 41
1.0
 50
0.0
 71
     0
 42
0.2
  3

  4

1001
AcadAnnotative
1000
AnnotativeData
1002
{
1070
     1
1070
     1
1002
}
  0
STYLE
  5
B1
330
3
100
AcDbSymbolTableRecord
100
AcDbTextStyleTableRecord
  2

 70
     1
 40
0.0
 41
1.0
 50
0.0
 71
     0
 42
0.2
  3
ltypeshp.shx
  4

  0
STYLE
  5
10B
330
3
100
AcDbSymbolTableRecord
100
AcDbTextStyleTableRecord
  2
Aktuell-DIN
 70
     0
 40
0.0
 41
1.0
 50
0.0
 71
     0
 42
0.2
  3
ARIAL.TTF
  4

1001
ACAD
1000
Arial
1071
      256
  0
STYLE
  5
10C
330
3
100
AcDbSymbolTableRecord
100
AcDbTextStyleTableRecord
  2
Current-DIN
 70
     0
 40
0.0
 41
1.0
 50
0.0
 71
     0
 42
0.2
  3
TAHOMA.TTF
  4

1001
ACAD
1000
Tahoma
1071
      256
  0
STYLE
  5
10D
330
3
100
AcDbSymbolTableRecord
100
AcDbTextStyleTableRecord
  2
Label Text (ANSI)
 70
     0
 40
0.0
 41
1.0
 50
0.0
 71
     0
 42
0.2
  3
TAHOMA.TTF
  4

1001
ACAD
1000
Tahoma
1071
      256
  0
STYLE
  5
10E
330
3
100
AcDbSymbolTableRecord
100
AcDbTextStyleTableRecord
  2
Label Text (DIN)
 70
     0
 40
0.0
 41
1.0
 50
0.0
 71
     0
 42
0.2
  3
isocpeur.ttf
  4

1001
ACAD
1000
ISOCPEUR
1071
      256
  0
STYLE
  5
10F
330
3
100
AcDbSymbolTableRecord
100
AcDbTextStyleTableRecord
  2
Label Text (ISO)
 70
     0
 40
0.0
 41
1.0
 50
0.0
 71
     0
 42
0.2
  3
TAHOMA.TTF
  4

1001
ACAD
1000
Tahoma
1071
      256
  0
STYLE
  5
110
330
3
100
AcDbSymbolTableRecord
100
AcDbTextStyleTableRecord
  2
Label Text (JIS)
 70
     0
 40
0.0
 41
1.0
 50
0.0
 71
     0
 42
0.2
  3
TAHOMA.TTF
  4

1001
ACAD
1000
Tahoma
1071
      256
  0
STYLE
  5
111
330
3
100
AcDbSymbolTableRecord
100
AcDbTextStyleTableRecord
  2
Note Text (ANSI)
 70
     0
 40
0.0
 41
1.0
 50
0.0
 71
     0
 42
0.2
  3
TAHOMA.TTF
  4

1001
ACAD
1000
Tahoma
1071
      256
  0
STYLE
  5
112
330
3
100
AcDbSymbolTableRecord
100
AcDbTextStyleTableRecord
  2
Note Text (DIN)
 70
     0
 40
0.0
 41
1.0
 50
0.0
 71
     0
 42
0.2
  3
isocpeur.ttf
  4

1001
ACAD
1000
ISOCPEUR
1071
      256
  0
STYLE
  5
113
330
3
100
AcDbSymbolTableRecord
100
AcDbTextStyleTableRecord
  2
Note Text (ISO)
 70
     0
 40
0.0
 41
1.0
 50
0.0
 71
     0
 42
0.2
  3
TAHOMA.TTF
  4

1001
ACAD
1000
Tahoma
1071
      256
  0
STYLE
  5
114
330
3
100
AcDbSymbolTableRecord
100
AcDbTextStyleTableRecord
  2
Note Text (JIS)
 70
     0
 40
0.0
 41
1.0
 50
0.0
 71
     0
 42
0.2
  3
TAHOMA.TTF
  4

1001
ACAD
1000
Tahoma
1071
      256
  0
STYLE
  5
115
330
3
100
AcDbSymbolTableRecord
100
AcDbTextStyleTableRecord
  2
Parts-List_2.0mm
 70
     0
 40
0.0
 41
0.899999976158142
 50
0.0
 71
     0
 42
0.2
  3
ARIAL.TTF
  4

1001
ACAD
1000
Arial
1071
      256
  0
STYLE
  5
116
330
3
100
AcDbSymbolTableRecord
100
AcDbTextStyleTableRecord
  2
Parts-List_2.0mmByLayer
 70
     0
 40
0.0
 41
0.899999976158142
 50
0.0
 71
     0
 42
0.2
  3
ARIAL.TTF
  4

1001
ACAD
1000
Arial
1071
      256
  0
STYLE
  5
117
330
3
100
AcDbSymbolTableRecord
100
AcDbTextStyleTableRecord
  2
Text__1.3mm
 70
     0
 40
0.0
 41
0.899999976158142
 50
0.0
 71
     0
 42
0.2
  3
ARIAL.TTF
  4

1001
ACAD
1000
Arial
1071
      256
  0
STYLE
  5
118
330
3
100
AcDbSymbolTableRecord
100
AcDbTextStyleTableRecord
  2
Text__1.5mm
 70
     0
 40
0.0
 41
0.899999976158142
 50
0.0
 71
     0
 42
0.2
  3
ARIAL.TTF
  4

1001
ACAD
1000
Arial
1071
      256
  0
STYLE
  5
119
330
3
100
AcDbSymbolTableRecord
100
AcDbTextStyleTableRecord
  2
Text__3.5mm
 70
     0
 40
0.0
 41
0.899999976158142
 50
0.0
 71
     0
 42
0.2
  3
ARIAL.TTF
  4

1001
ACAD
1000
Arial
1071
      256
  0
STYLE
  5
11A
330
3
100
AcDbSymbolTableRecord
100
AcDbTextStyleTableRecord
  2
Text__3.5mmBigText
 70
     0
 40
0.0
 41
0.899999976158142
 50
0.0
 71
     0
 42
0.2
  3
ARIAL.TTF
  4

1001
ACAD
1000
Arial
1071
      256
  0
STYLE
  5
11B
330
3
100
AcDbSymbolTableRecord
100
AcDbTextStyleTableRecord
  2
Text__3.5mmByLayer
 70
     0
 40
0.0
 41
0.899999976158142
 50
0.0
 71
     0
 42
0.2
  3
ARIAL.TTF
  4

1001
ACAD
1000
Arial
1071
      256
  0
STYLE
  5
11C
330
3
100
AcDbSymbolTableRecord
100
AcDbTextStyleTableRecord
  2
Text__4.0mm
 70
     0
 40
0.0
 41
0.899999976158142
 50
0.0
 71
     0
 42
0.2
  3
ARIAL.TTF
  4

1001
ACAD
1000
Arial
1071
      256
  0
STYLE
  5
11D
330
3
100
AcDbSymbolTableRecord
100
AcDbTextStyleTableRecord
  2
Text__5.0mm
 70
     0
 40
0.0
 41
0.899999976158142
 50
0.0
 71
     0
 42
0.2
  3
ARIAL.TTF
  4

1001
ACAD
1000
Arial
1071
      256
  0
STYLE
  5
11E
330
3
100
AcDbSymbolTableRecord
100
AcDbTextStyleTableRecord
  2
Text__5.0mmByLayer
 70
     0
 40
0.0
 41
0.899999976158142
 50
0.0
 71
     0
 42
0.2
  3
ARIAL.TTF
  4

1001
ACAD
1000
Arial
1071
      256
  0
STYLE
  5
11F
330
3
100
AcDbSymbolTableRecord
100
AcDbTextStyleTableRecord
  2
Text_2.5mm
 70
     0
 40
0.0
 41
0.899999976158142
 50
0.0
 71
     0
 42
0.2
  3
ARIAL.TTF
  4

1001
ACAD
1000
Arial
1071
      256
  0
STYLE
  5
120
330
3
100
AcDbSymbolTableRecord
100
AcDbTextStyleTableRecord
  2
Text_3.5mm
 70
     0
 40
0.0
 41
0.899999976158142
 50
0.0
 71
     0
 42
0.2
  3
ARIAL.TTF
  4

1001
ACAD
1000
Arial
1071
      256
  0
STYLE
  5
121
330
3
100
AcDbSymbolTableRecord
100
AcDbTextStyleTableRecord
  2
Text_5.0mm
 70
     0
 40
0.0
 41
0.899999976158142
 50
0.0
 71
     0
 42
0.2
  3
ARIAL.TTF
  4

1001
ACAD
1000
Arial
1071
      256
  0
STYLE
  5
122
330
3
100
AcDbSymbolTableRecord
100
AcDbTextStyleTableRecord
  2
Text_5.0mmByLayer
 70
     0
 40
0.0
 41
0.899999976158142
 50
0.0
 71
     0
 42
0.2
  3
ARIAL.TTF
  4

1001
ACAD
1000
Arial
1071
      256
  0
ENDTAB
  0
TABLE
  2
VIEW
  5
6
330
0
100
AcDbSymbolTable
 70
     0
  0
ENDTAB
  0
TABLE
  2
UCS
  5
7
330
0
100
AcDbSymbolTable
 70
     0
  0
ENDTAB
  0
TABLE
  2
APPID
  5
9
330
0
100
AcDbSymbolTable
 70
     4
  0
APPID
  5
5E
330
9
100
AcDbSymbolTableRecord
100
AcDbRegAppTableRecord
  2
ACAD
 70
     0
  0
APPID
  5
66
330
9
100
AcDbSymbolTableRecord
100
AcDbRegAppTableRecord
  2
AcadAnnotative
 70
     0
  0
APPID
  5
70
330
9
100
AcDbSymbolTableRecord
100
AcDbRegAppTableRecord
  2
ACAD_MLEADERVER
 70
     0
  0
APPID
  5
D2B
330
9
100
AcDbSymbolTableRecord
100
AcDbRegAppTableRecord
  2
ACAD_DSTYLE_DIMFLIPARROW_WHICH_SYMBOL
 70
     0
  0
ENDTAB
  0
TABLE
  2
DIMSTYLE
  5
A
330
0
100
AcDbSymbolTable
 70
    17
100
AcDbDimStyleTable
 71
     2
340
127
340
60
  0
DIMSTYLE
105
60
330
A
100
AcDbSymbolTableRecord
100
AcDbDimStyleTableRecord
  2
Standard
 70
     0
340
5D
  0
DIMSTYLE
105
61
330
A
100
AcDbSymbolTableRecord
100
AcDbDimStyleTableRecord
  2
Annotative
 70
     0
340
5D
1001
AcadAnnotative
1000
AnnotativeData
1002
{
1070
     1
1070
     1
1002
}
  0
DIMSTYLE
105
123
330
A
100
AcDbSymbolTableRecord
100
AcDbDimStyleTableRecord
  2
KS-STANDARD
 70
     0
 40
7.0
 41
2.5
 42
0.0
 43
12.0
 44
3.174999999999999
 45
0.00000001
 46
10.0
 73
     0
 74
     0
 77
     1
 78
     8
 79
     2
140
3.5
143
0.03937
146
0.7142857142857144
147
0.8000000000000001
171
     3
172
     1
176
     7
177
     7
178
     7
271
     1
274
     3
278
    44
284
     8
286
     8
340
120
371
    25
372
    25
  0
DIMSTYLE
105
124
330
A
100
AcDbSymbolTableRecord
100
AcDbDimStyleTableRecord
  2
KS-STANDARD$7
 70
     0
 40
7.0
 41
2.5
 42
0.0
 43
12.0
 44
3.174999999999999
 45
0.00000001
 46
10.0
 73
     0
 74
     0
 77
     1
 78
     8
 79
     2
140
3.5
143
0.03937
146
0.7142857142857144
147
0.8000000000000001
171
     3
172
     1
176
     7
177
     7
178
     7
271
     1
274
     3
278
    44
284
     8
286
     8
340
120
371
    25
372
    25
  0
DIMSTYLE
105
125
330
A
100
AcDbSymbolTableRecord
100
AcDbDimStyleTableRecord
  2
KS-STANDARDBigText
 70
     0
 40
7.0
 41
5.0
 42
0.0
 43
12.0
 44
3.174999999999999
 45
0.00000001
 46
10.0
 73
     0
 74
     0
 77
     1
 78
     8
 79
     2
140
5.25
143
0.03937
146
0.4761904761904762
147
0.8000000000000001
171
     3
172
     1
176
     7
177
     7
178
     7
271
     1
274
     3
278
    44
284
     8
286
     8
340
11A
371
    25
372
    25
  0
DIMSTYLE
105
126
330
A
100
AcDbSymbolTableRecord
100
AcDbDimStyleTableRecord
  2
KS-STANDARDBigText$7
 70
     0
 40
7.0
 41
5.0
 42
0.0
 43
12.0
 44
3.174999999999999
 45
0.00000001
 46
10.0
 73
     0
 74
     0
 77
     1
 78
     8
 79
     2
140
5.25
143
0.03937
146
0.4761904761904762
147
0.8000000000000001
171
     3
172
     1
176
     7
177
     7
178
     7
271
     1
274
     3
278
    44
284
     8
286
     8
340
11A
371
    25
372
    25
  0
DIMSTYLE
105
127
102
{ACAD_REACTORS
330
510
330
5F1
330
6CC
330
7AC
330
887
330
987
330
A63
330
B4B
330
C33
102
}
330
A
100
AcDbSymbolTableRecord
100
AcDbDimStyleTableRecord
  2
MarketingDrawing
 70
     0
 40
7.0
 41
4.0
 42
2.0
 43
12.0
 44
2.0
 45
0.00000001
 46
10.0
 78
     8
 79
     2
140
4.0
143
0.03937
146
0.625
147
1.0
171
     3
176
     7
177
     7
178
     7
271
     0
274
     3
278
    44
284
     8
286
     8
340
11C
371
    25
372
    25
  0
DIMSTYLE
105
128
330
A
100
AcDbSymbolTableRecord
100
AcDbDimStyleTableRecord
  2
MarketingDrawing$7
 70
     0
 40
7.0
 41
5.0
 42
2.0
 43
12.0
 44
2.0
 45
0.00000001
 46
10.0
 78
     8
 79
     2
140
4.0
143
0.03937
146
0.625
147
1.0
171
     3
176
     7
177
     7
178
     7
271
     0
274
     3
278
    44
284
     8
286
     8
340
11C
371
    25
372
    25
  0
DIMSTYLE
105
133
330
A
100
AcDbSymbolTableRecord
100
AcDbDimStyleTableRecord
  2
Leader-Datum(DIN)
 70
     0
 40
7.0
 41
2.5
340
5D
342
134
  0
DIMSTYLE
105
13B
330
A
100
AcDbSymbolTableRecord
100
AcDbDimStyleTableRecord
  2
Leader-Datum(ISO)
 70
     0
 40
7.0
 41
2.5
340
5D
342
134
  0
DIMSTYLE
105
13C
330
A
100
AcDbSymbolTableRecord
100
AcDbDimStyleTableRecord
  2
Leader-Dot(DIN)
 70
     0
 40
7.0
 41
2.5
340
5D
342
134
  0
DIMSTYLE
105
13D
330
A
100
AcDbSymbolTableRecord
100
AcDbDimStyleTableRecord
  2
Leader-Dot(ISO)
 70
     0
 40
7.0
 41
2.5
340
5D
342
134
  0
DIMSTYLE
105
13E
330
A
100
AcDbSymbolTableRecord
100
AcDbDimStyleTableRecord
  2
Leader-Large(DIN)
 70
     0
 40
7.0
 41
5.0
340
5D
342
134
  0
DIMSTYLE
105
13F
330
A
100
AcDbSymbolTableRecord
100
AcDbDimStyleTableRecord
  2
Leader-OriginIndicator(DIN)
 70
     0
 40
7.0
 41
2.5
340
5D
342
134
  0
DIMSTYLE
105
140
330
A
100
AcDbSymbolTableRecord
100
AcDbDimStyleTableRecord
  2
Leader-OriginIndicator(ISO)
 70
     0
 40
7.0
 41
2.5
340
5D
342
134
  0
DIMSTYLE
105
141
330
A
100
AcDbSymbolTableRecord
100
AcDbDimStyleTableRecord
  2
Leader(DIN)
 70
     0
 40
7.0
 41
2.5
340
5D
342
134
  0
DIMSTYLE
105
142
330
A
100
AcDbSymbolTableRecord
100
AcDbDimStyleTableRecord
  2
Leader(ISO)
 70
     0
 40
7.0
 41
2.5
340
5D
342
134
  0
ENDTAB
  0
TABLE
  2
BLOCK_RECORD
  5
1
330
0
100
AcDbSymbolTable
 70
    26
  0
BLOCK_RECORD
  5
75
330
1
100
AcDbSymbolTableRecord
100
AcDbBlockTableRecord
  2
*Model_Space
340
78
  0
BLOCK_RECORD
  5
71
330
1
100
AcDbSymbolTableRecord
100
AcDbBlockTableRecord
  2
*Paper_Space
340
74
  0
BLOCK_RECORD
  5
79
330
1
100
AcDbSymbolTableRecord
100
AcDbBlockTableRecord
  2
*Paper_Space0
340
7C
  0
BLOCK_RECORD
  5
129
330
1
100
AcDbSymbolTableRecord
100
AcDbBlockTableRecord
  2
DatumFilled45
340
0
  0
BLOCK_RECORD
  5
134
330
1
100
AcDbSymbolTableRecord
100
AcDbBlockTableRecord
  2
_Closed
340
0
  0
BLOCK_RECORD
  5
143
330
1
100
AcDbSymbolTableRecord
100
AcDbBlockTableRecord
  2
DIN 16901 - 130 A
340
0
  0
BLOCK_RECORD
  5
17B
330
1
100
AcDbSymbolTableRecord
100
AcDbBlockTableRecord
  2
DIN 16901 - 140 A
340
0
  0
BLOCK_RECORD
  5
1B2
330
1
100
AcDbSymbolTableRecord
100
AcDbBlockTableRecord
  2
DIN 16901 - 150 A
340
0
  0
BLOCK_RECORD
  5
1E9
330
1
100
AcDbSymbolTableRecord
100
AcDbBlockTableRecord
  2
DIN 16901 - 160 A
340
0
  0
BLOCK_RECORD
  5
220
330
1
100
AcDbSymbolTableRecord
100
AcDbBlockTableRecord
  2
DIN 17 673
340
0
  0
BLOCK_RECORD
  5
291
330
1
100
AcDbSymbolTableRecord
100
AcDbBlockTableRecord
  2
DIN ISO 2768-mLE
340
0
  0
BLOCK_RECORD
  5
2AE
330
1
100
AcDbSymbolTableRecord
100
AcDbBlockTableRecord
  2
GTA 15 DIN 1687
340
0
  0
BLOCK_RECORD
  5
2F0
330
1
100
AcDbSymbolTableRecord
100
AcDbBlockTableRecord
  2
Werkstückkanten
340
0
  0
BLOCK_RECORD
  5
317
330
1
100
AcDbSymbolTableRecord
100
AcDbBlockTableRecord
  2
Index
340
0
  0
BLOCK_RECORD
  5
31C
330
1
100
AcDbSymbolTableRecord
100
AcDbBlockTableRecord
  2
AIR
340
0
  0
BLOCK_RECORD
  5
328
330
1
100
AcDbSymbolTableRecord
100
AcDbBlockTableRecord
  2
Werkstückkanten Aussen
340
0
  0
BLOCK_RECORD
  5
33E
330
1
100
AcDbSymbolTableRecord
100
AcDbBlockTableRecord
  2
Schliffrichtung
340
0
  0
BLOCK_RECORD
  5
352
330
1
100
AcDbSymbolTableRecord
100
AcDbBlockTableRecord
  2
Title Blocks WS-Marketing-FUN
340
0
102
{BLKREFS
331
45A
102
}
  0
BLOCK_RECORD
  5
46F
330
1
100
AcDbSymbolTableRecord
100
AcDbBlockTableRecord
  2
Borders Verkauf Border_85x80
340
0
102
{BLKREFS
331
47A
102
}
  0
BLOCK_RECORD
  5
512
330
1
100
AcDbSymbolTableRecord
100
AcDbBlockTableRecord
  2
*D17
340
0
  0
BLOCK_RECORD
  5
5F2
330
1
100
AcDbSymbolTableRecord
100
AcDbBlockTableRecord
  2
*D18
340
0
  0
BLOCK_RECORD
  5
6CD
330
1
100
AcDbSymbolTableRecord
100
AcDbBlockTableRecord
  2
*D19
340
0
  0
BLOCK_RECORD
  5
7AD
330
1
100
AcDbSymbolTableRecord
100
AcDbBlockTableRecord
  2
*D20
340
0
  0
BLOCK_RECORD
  5
888
330
1
100
AcDbSymbolTableRecord
100
AcDbBlockTableRecord
  2
*D21
340
0
  0
BLOCK_RECORD
  5
988
330
1
100
AcDbSymbolTableRecord
100
AcDbBlockTableRecord
  2
*D22
340
0
  0
BLOCK_RECORD
  5
A64
330
1
100
AcDbSymbolTableRecord
100
AcDbBlockTableRecord
  2
*D23
340
0
  0
BLOCK_RECORD
  5
B4C
330
1
100
AcDbSymbolTableRecord
100
AcDbBlockTableRecord
  2
*D24
340
0
  0
BLOCK_RECORD
  5
C34
330
1
100
AcDbSymbolTableRecord
100
AcDbBlockTableRecord
  2
*D25
340
0
  0
ENDTAB
  0
ENDSEC
  0
SECTION
  2
BLOCKS
  0
BLOCK
  5
76
330
75
100
AcDbEntity
  8
0
100
AcDbBlockBegin
  2
*Model_Space
 70
     0
 10
0.0
 20
0.0
 30
0.0
  3
*Model_Space
  1

  0
ENDBLK
  5
77
330
75
100
AcDbEntity
  8
0
100
AcDbBlockEnd
  0
BLOCK
  5
72
330
71
100
AcDbEntity
 67
     1
  8
0
100
AcDbBlockBegin
  2
*Paper_Space
 70
     0
 10
0.0
 20
0.0
 30
0.0
  3
*Paper_Space
  1

  0
ENDBLK
  5
73
330
71
100
AcDbEntity
 67
     1
  8
0
100
AcDbBlockEnd
  0
BLOCK
  5
7A
330
79
100
AcDbEntity
 67
     1
  8
0
100
AcDbBlockBegin
  2
*Paper_Space0
 70
     0
 10
0.0
 20
0.0
 30
0.0
  3
*Paper_Space0
  1

  0
ENDBLK
  5
7B
330
79
100
AcDbEntity
 67
     1
  8
0
100
AcDbBlockEnd
  0
BLOCK
  5
12A
330
129
100
AcDbEntity
  8
0
100
AcDbBlockBegin
  2
DatumFilled45
 70
     0
 10
0.0
 20
0.0
 30
0.0
  3
DatumFilled45
  1

  0
POLYLINE
  5
12C
330
129
100
AcDbEntity
  8
0
 62
     0
100
AcDb2dPolyline
 66
     1
 10
0.0
 20
0.0
 30
0.0
 70
   128
  0
VERTEX
  5
12D
330
12C
100
AcDbEntity
  8
0
 62
     0
100
AcDbVertex
100
AcDb2dVertex
 10
0.0
 20
1.0
 30
0.0
  0
VERTEX
  5
12E
330
12C
100
AcDbEntity
  8
0
 62
     0
100
AcDbVertex
100
AcDb2dVertex
 10
0.0
 20
-1.0
 30
0.0
  0
VERTEX
  5
130
330
12C
100
AcDbEntity
  8
0
 62
     0
100
AcDbVertex
100
AcDb2dVertex
 10
-1.0
 20
0.0
 30
0.0
  0
VERTEX
  5
131
330
12C
100
AcDbEntity
  8
0
 62
     0
100
AcDbVertex
100
AcDb2dVertex
 10
0.0
 20
1.0
 30
0.0
  0
SEQEND
  5
12F
330
12C
100
AcDbEntity
  8
0
 62
     0
  0
SOLID
  5
132
330
129
100
AcDbEntity
  8
0
 62
     0
100
AcDbTrace
 10
0.0
 20
1.0
 30
0.0
 11
0.0
 21
-1.0
 31
0.0
 12
-1.0
 22
0.0
 32
0.0
 13
0.0
 23
1.0
 33
0.0
  0
ENDBLK
  5
12B
330
129
100
AcDbEntity
  8
0
100
AcDbBlockEnd
  0
BLOCK
  5
139
330
134
100
AcDbEntity
  8
0
100
AcDbBlockBegin
  2
_Closed
 70
     0
 10
0.0
 20
0.0
 30
0.0
  3
_Closed
  1

  0
LINE
  5
135
330
134
100
AcDbEntity
  8
0
  6
ByBlock
 62
     0
370
    -2
100
AcDbLine
 10
-1.0
 20
0.1666666666666666
 30
0.0
 11
0.0
 21
0.0
 31
0.0
  0
LINE
  5
136
330
134
100
AcDbEntity
  8
0
  6
ByBlock
 62
     0
370
    -2
100
AcDbLine
 10
0.0
 20
0.0
 30
0.0
 11
-1.0
 21
-0.1666666666666666
 31
0.0
  0
LINE
  5
137
330
134
100
AcDbEntity
  8
0
  6
ByBlock
 62
     0
370
    -2
100
AcDbLine
 10
-1.0
 20
0.1666666666666666
 30
0.0
 11
-1.0
 21
-0.1666666666666666
 31
0.0
  0
LINE
  5
138
330
134
100
AcDbEntity
  8
0
  6
ByBlock
 62
     0
370
    -2
100
AcDbLine
 10
0.0
 20
0.0
 30
0.0
 11
-1.0
 21
0.0
 31
0.0
  0
ENDBLK
  5
13A
330
134
100
AcDbEntity
  8
0
100
AcDbBlockEnd
  0
BLOCK
  5
144
330
143
100
AcDbEntity
  8
0
100
AcDbBlockBegin
  2
DIN 16901 - 130 A
 70
     0
 10
0.0
 20
0.0
 30
0.0
  3
DIN 16901 - 130 A
  1

  0
LINE
  5
146
330
143
100
AcDbEntity
  8
Sketch Geometry(ISO)
100
AcDbLine
 10
-115.9999999999999
 20
27.99999999999994
 30
0.0
 11
0.0
 21
27.99999999999994
 31
0.0
  0
LINE
  5
147
330
143
100
AcDbEntity
  8
Sketch Geometry(ISO)
100
AcDbLine
 10
0.0
 20
27.99999999999994
 30
0.0
 11
0.0
 21
9.999999999999928
 31
0.0
  0
LINE
  5
148
330
143
100
AcDbEntity
  8
Sketch Geometry(ISO)
100
AcDbLine
 10
0.0
 20
9.999999999999928
 30
0.0
 11
-115.9999999999999
 21
9.999999999999928
 31
0.0
  0
LINE
  5
149
330
143
100
AcDbEntity
  8
Sketch Geometry(ISO)
100
AcDbLine
 10
-115.9999999999999
 20
9.999999999999928
 30
0.0
 11
-115.9999999999999
 21
27.99999999999994
 31
0.0
  0
LINE
  5
14A
330
143
100
AcDbEntity
  8
Sketch Geometry(ISO)
100
AcDbLine
 10
0.0
 20
13.99999999999991
 30
0.0
 11
-115.9999999999999
 21
13.99999999999991
 31
0.0
  0
LINE
  5
14B
330
143
100
AcDbEntity
  8
Sketch Geometry(ISO)
100
AcDbLine
 10
-115.9999999999999
 20
20.99999999999991
 30
0.0
 11
0.0
 21
20.99999999999991
 31
0.0
  0
LINE
  5
14C
330
143
100
AcDbEntity
  8
Sketch Geometry(ISO)
370
    35
100
AcDbLine
 10
-55.99999999999994
 20
9.999999999999928
 30
0.0
 11
-55.99999999999994
 21
20.99999999999991
 31
0.0
  0
LINE
  5
14D
330
143
100
AcDbEntity
  8
Sketch Geometry(ISO)
370
    35
100
AcDbLine
 10
-39.99999999999993
 20
20.99999999999991
 30
0.0
 11
-39.99999999999993
 21
9.999999999999928
 31
0.0
  0
LINE
  5
14E
330
143
100
AcDbEntity
  8
Sketch Geometry(ISO)
370
    35
100
AcDbLine
 10
-103.9999999999999
 20
20.99999999999991
 30
0.0
 11
-103.9999999999999
 21
9.999999999999928
 31
0.0
  0
LINE
  5
14F
330
143
100
AcDbEntity
  8
Sketch Geometry(ISO)
370
    35
100
AcDbLine
 10
-95.99999999999994
 20
20.99999999999991
 30
0.0
 11
-95.99999999999994
 21
9.999999999999928
 31
0.0
  0
LINE
  5
150
330
143
100
AcDbEntity
  8
Sketch Geometry(ISO)
370
    35
100
AcDbLine
 10
-87.99999999999995
 20
20.99999999999991
 30
0.0
 11
-87.99999999999995
 21
9.999999999999928
 31
0.0
  0
LINE
  5
151
330
143
100
AcDbEntity
  8
Sketch Geometry(ISO)
370
    35
100
AcDbLine
 10
-79.99999999999994
 20
20.99999999999991
 30
0.0
 11
-79.99999999999994
 21
9.999999999999928
 31
0.0
  0
LINE
  5
152
330
143
100
AcDbEntity
  8
Sketch Geometry(ISO)
370
    35
100
AcDbLine
 10
-71.99999999999994
 20
20.99999999999991
 30
0.0
 11
-71.99999999999994
 21
9.999999999999928
 31
0.0
  0
LINE
  5
153
330
143
100
AcDbEntity
  8
Sketch Geometry(ISO)
370
    35
100
AcDbLine
 10
-63.99999999999993
 20
20.99999999999991
 30
0.0
 11
-63.99999999999993
 21
9.999999999999928
 31
0.0
  0
LINE
  5
154
330
143
100
AcDbEntity
  8
Sketch Geometry(ISO)
370
    35
100
AcDbLine
 10
-31.99999999999994
 20
20.99999999999991
 30
0.0
 11
-31.99999999999994
 21
9.999999999999928
 31
0.0
  0
LINE
  5
155
330
143
100
AcDbEntity
  8
Sketch Geometry(ISO)
370
    35
100
AcDbLine
 10
-23.99999999999993
 20
20.99999999999991
 30
0.0
 11
-23.99999999999993
 21
9.999999999999928
 31
0.0
  0
LINE
  5
156
330
143
100
AcDbEntity
  8
Sketch Geometry(ISO)
370
    35
100
AcDbLine
 10
-15.99999999999994
 20
20.99999999999991
 30
0.0
 11
-15.99999999999994
 21
9.999999999999928
 31
0.0
  0
LINE
  5
157
330
143
100
AcDbEntity
  8
Sketch Geometry(ISO)
370
    35
100
AcDbLine
 10
-7.999999999999936
 20
20.99999999999991
 30
0.0
 11
-7.999999999999936
 21
9.999999999999928
 31
0.0
  0
LINE
  5
158
330
143
100
AcDbEntity
  8
Sketch Geometry(ISO)
370
    35
100
AcDbLine
 10
-47.99999999999996
 20
9.999999999999928
 30
0.0
 11
-47.99999999999996
 21
20.99999999999991
 31
0.0
  0
LINE
  5
159
330
143
100
AcDbEntity
  8
Sketch Geometry(ISO)
100
AcDbLine
 10
-115.9999999999999
 20
9.999999999999928
 30
0.0
 11
0.0
 21
9.999999999999928
 31
0.0
  0
LINE
  5
15A
330
143
100
AcDbEntity
  8
Sketch Geometry(ISO)
100
AcDbLine
 10
0.0
 20
9.999999999999928
 30
0.0
 11
0.0
 21
0.0
 31
0.0
  0
LINE
  5
15B
330
143
100
AcDbEntity
  8
Sketch Geometry(ISO)
100
AcDbLine
 10
0.0
 20
0.0
 30
0.0
 11
-115.9999999999999
 21
0.0
 31
0.0
  0
LINE
  5
15C
330
143
100
AcDbEntity
  8
Sketch Geometry(ISO)
100
AcDbLine
 10
-115.9999999999999
 20
0.0
 30
0.0
 11
-115.9999999999999
 21
9.999999999999928
 31
0.0
  0
MTEXT
  5
15D
330
143
100
AcDbEntity
  8
Symbols(ISO)
 62
     7
100
AcDbMText
 10
-57.99999999999993
 20
24.7506267403562
 30
0.0
 40
1.49859994649887
 41
0.0
 71
     5
 72
     1
  1
\fArial|b0|i0;\H1.4986;Allgemeintoleranzen DIN 16901 - 130 A / Radien-, Winkel-, Form- und Lagetoleranzen DIN ISO 2768-mLE / DIN 7167\PGeneral tolerances DIN 16901 - 130 A / radius, angle, geometrical tolerances DIN ISO 2768-mLE / DIN 7167
  7
Text__3.5mm
 73
     2
 44
0.9442214369773864
  0
MTEXT
  5
15F
330
143
100
AcDbEntity
  8
Symbols(ISO)
 62
     7
100
AcDbMText
 10
-109.9999999999999
 20
17.72294209649157
 30
0.0
 40
1.500000059604644
 41
0.0
 71
     5
 72
     1
  1
\fArial|b1|i0;\H1.5000;über / above\Pbis / up to
  7
Text__3.5mm
 73
     2
 44
0.9442214369773864
  0
MTEXT
  5
160
330
143
100
AcDbEntity
  8
Symbols(ISO)
 62
     7
100
AcDbMText
 10
-57.99999999999997
 20
5.250626740356274
 30
0.0
 40
1.49859994649887
 41
115.0369644165039
 71
     5
 72
     1
  3
\fArial|b0|i0;\H1.4986;Material:PC,PMMA,SAN,ASA,PSU,POM - gefüllt/with filler, ABS,PBT-gefüllt/with filler,PPE/PS-gefüllt/with filler - ungefüllt/w/o.filler, PA6-PA66-PA11-PA12-gefüllt/with filler \PMaterial nicht in DIN 16 901 / Material not covered
  1
 by DIN 16 901: PMMA/PS,PVC-hart/rigid PVC, ABS/PC, PS/SB, PAPA-gefüllt/with filler - ungefüllt/w/o. filler
  7
Text__3.5mm
 73
     2
 44
0.9442214369773864
  0
MTEXT
  5
161
330
143
100
AcDbEntity
  8
Symbols(ISO)
 62
     7
100
AcDbMText
 10
-99.99999999999992
 20
17.24737775822472
 30
0.0
 40
1.49859994649887
 41
0.0
 71
     5
 72
     1
  1
\fArial|b0|i0;\H1.4986;0\P1
  7
Text__3.5mm
 73
     2
 44
0.9442214369773864
  0
MTEXT
  5
162
330
143
100
AcDbEntity
  8
Symbols(ISO)
 62
     7
100
AcDbMText
 10
-75.99999999999991
 20
17.27672227037441
 30
0.0
 40
1.49859994649887
 41
0.0
 71
     5
 72
     1
  1
\fArial|b0|i0;\H1.4986;6\P10
  7
Text__3.5mm
 73
     2
 44
0.9442214369773864
  0
MTEXT
  5
163
330
143
100
AcDbEntity
  8
Symbols(ISO)
 62
     7
100
AcDbMText
 10
-83.99999999999991
 20
17.27672227037441
 30
0.0
 40
1.49859994649887
 41
0.0
 71
     5
 72
     1
  1
\fArial|b0|i0;\H1.4986;3\P6
  7
Text__3.5mm
 73
     2
 44
0.9442214369773864
  0
MTEXT
  5
164
330
143
100
AcDbEntity
  8
Symbols(ISO)
 62
     7
100
AcDbMText
 10
-91.99999999999992
 20
17.27672227037441
 30
0.0
 40
1.49859994649887
 41
0.0
 71
     5
 72
     1
  1
\fArial|b0|i0;\H1.4986;1\P3
  7
Text__3.5mm
 73
     2
 44
0.9442214369773864
  0
MTEXT
  5
165
330
143
100
AcDbEntity
  8
Symbols(ISO)
 62
     7
100
AcDbMText
 10
-67.9999999999999
 20
17.27672227037441
 30
0.0
 40
1.49859994649887
 41
0.0
 71
     5
 72
     1
  1
\fArial|b0|i0;\H1.4986;10\P15
  7
Text__3.5mm
 73
     2
 44
0.9442214369773864
  0
MTEXT
  5
166
330
143
100
AcDbEntity
  8
Symbols(ISO)
 62
     7
100
AcDbMText
 10
-43.99999999999987
 20
17.27672227037441
 30
0.0
 40
1.49859994649887
 41
0.0
 71
     5
 72
     1
  1
\fArial|b0|i0;\H1.4986;30\P40
  7
Text__3.5mm
 73
     2
 44
0.9442214369773864
  0
MTEXT
  5
167
330
143
100
AcDbEntity
  8
Symbols(ISO)
 62
     7
100
AcDbMText
 10
-51.99999999999988
 20
17.27672227037441
 30
0.0
 40
1.49859994649887
 41
0.0
 71
     5
 72
     1
  1
\fArial|b0|i0;\H1.4986;22\P30
  7
Text__3.5mm
 73
     2
 44
0.9442214369773864
  0
MTEXT
  5
168
330
143
100
AcDbEntity
  8
Symbols(ISO)
 62
     7
100
AcDbMText
 10
-59.99999999999989
 20
17.24737775822472
 30
0.0
 40
1.49859994649887
 41
0.0
 71
     5
 72
     1
  1
\fArial|b0|i0;\H1.4986;15\P22
  7
Text__3.5mm
 73
     2
 44
0.9442214369773864
  0
MTEXT
  5
169
330
143
100
AcDbEntity
  8
Symbols(ISO)
 62
     7
100
AcDbMText
 10
-3.999999999999843
 20
17.27672227037441
 30
0.0
 40
1.49859994649887
 41
0.0
 71
     5
 72
     1
  1
\fArial|b0|i0;\H1.4986;120\P160
  7
Text__3.5mm
 73
     2
 44
0.9442214369773864
  0
MTEXT
  5
16A
330
143
100
AcDbEntity
  8
Symbols(ISO)
 62
     7
100
AcDbMText
 10
-11.99999999999985
 20
17.27672227037441
 30
0.0
 40
1.49859994649887
 41
0.0
 71
     5
 72
     1
  1
\fArial|b0|i0;\H1.4986;90\P120
  7
Text__3.5mm
 73
     2
 44
0.9442214369773864
  0
MTEXT
  5
16B
330
143
100
AcDbEntity
  8
Symbols(ISO)
 62
     7
100
AcDbMText
 10
-19.99999999999985
 20
17.27672227037441
 30
0.0
 40
1.49859994649887
 41
0.0
 71
     5
 72
     1
  1
\fArial|b0|i0;\H1.4986;70\P90
  7
Text__3.5mm
 73
     2
 44
0.9442214369773864
  0
MTEXT
  5
16C
330
143
100
AcDbEntity
  8
Symbols(ISO)
 62
     7
100
AcDbMText
 10
-27.99999999999986
 20
17.27672227037441
 30
0.0
 40
1.49859994649887
 41
0.0
 71
     5
 72
     1
  1
\fArial|b0|i0;\H1.4986;53\P70
  7
Text__3.5mm
 73
     2
 44
0.9442214369773864
  0
MTEXT
  5
16D
330
143
100
AcDbEntity
  8
Symbols(ISO)
 62
     7
100
AcDbMText
 10
-35.99999999999987
 20
17.27672227037441
 30
0.0
 40
1.49859994649887
 41
0.0
 71
     5
 72
     1
  1
\fArial|b0|i0;\H1.4986;40\P53
  7
Text__3.5mm
 73
     2
 44
0.9442214369773864
  0
MTEXT
  5
16E
330
143
100
AcDbEntity
  8
Symbols(ISO)
 62
     7
100
AcDbMText
 10
-99.99999999999992
 20
11.99999999999992
 30
0.0
 40
1.49859994649887
 41
0.0
 71
     5
 72
     1
  1
\fArial|b0|i0;\H1.4986;±0,18
  7
Text__3.5mm
 73
     1
 44
1.0
  0
MTEXT
  5
16F
330
143
100
AcDbEntity
  8
Symbols(ISO)
 62
     7
100
AcDbMText
 10
-27.99999999999986
 20
11.99999999999992
 30
0.0
 40
1.49859994649887
 41
0.0
 71
     5
 72
     1
  1
\fArial|b0|i0;\H1.4986;±0,38
  7
Text__3.5mm
 73
     1
 44
1.0
  0
MTEXT
  5
170
330
143
100
AcDbEntity
  8
Symbols(ISO)
 62
     7
100
AcDbMText
 10
-75.99999999999991
 20
11.99999999999992
 30
0.0
 40
1.49859994649887
 41
0.0
 71
     5
 72
     1
  1
\fArial|b0|i0;\H1.4986;±0,21
  7
Text__3.5mm
 73
     1
 44
1.0
  0
MTEXT
  5
171
330
143
100
AcDbEntity
  8
Symbols(ISO)
 62
     7
100
AcDbMText
 10
-83.99999999999991
 20
11.99999999999992
 30
0.0
 40
1.49859994649887
 41
0.0
 71
     5
 72
     1
  1
\fArial|b0|i0;\H1.4986;±0,20
  7
Text__3.5mm
 73
     1
 44
1.0
  0
MTEXT
  5
172
330
143
100
AcDbEntity
  8
Symbols(ISO)
 62
     7
100
AcDbMText
 10
-67.9999999999999
 20
11.99999999999992
 30
0.0
 40
1.49859994649887
 41
0.0
 71
     5
 72
     1
  1
\fArial|b0|i0;\H1.4986;±0,23
  7
Text__3.5mm
 73
     1
 44
1.0
  0
MTEXT
  5
173
330
143
100
AcDbEntity
  8
Symbols(ISO)
 62
     7
100
AcDbMText
 10
-59.99999999999989
 20
11.99999999999992
 30
0.0
 40
1.49859994649887
 41
0.0
 71
     5
 72
     1
  1
\fArial|b0|i0;\H1.4986;±0,25
  7
Text__3.5mm
 73
     1
 44
1.0
  0
MTEXT
  5
174
330
143
100
AcDbEntity
  8
Symbols(ISO)
 62
     7
100
AcDbMText
 10
-51.99999999999988
 20
11.99999999999992
 30
0.0
 40
1.49859994649887
 41
0.0
 71
     5
 72
     1
  1
\fArial|b0|i0;\H1.4986;±0,27
  7
Text__3.5mm
 73
     1
 44
1.0
  0
MTEXT
  5
175
330
143
100
AcDbEntity
  8
Symbols(ISO)
 62
     7
100
AcDbMText
 10
-43.99999999999987
 20
11.99999999999992
 30
0.0
 40
1.49859994649887
 41
0.0
 71
     5
 72
     1
  1
\fArial|b0|i0;\H1.4986;±0,30
  7
Text__3.5mm
 73
     1
 44
1.0
  0
MTEXT
  5
176
330
143
100
AcDbEntity
  8
Symbols(ISO)
 62
     7
100
AcDbMText
 10
-35.99999999999987
 20
11.99999999999992
 30
0.0
 40
1.49859994649887
 41
0.0
 71
     5
 72
     1
  1
\fArial|b0|i0;\H1.4986;±0,34
  7
Text__3.5mm
 73
     1
 44
1.0
  0
MTEXT
  5
177
330
143
100
AcDbEntity
  8
Symbols(ISO)
 62
     7
100
AcDbMText
 10
-91.99999999999992
 20
11.99999999999992
 30
0.0
 40
1.49859994649887
 41
0.0
 71
     5
 72
     1
  1
\fArial|b0|i0;\H1.4986;±0,19
  7
Text__3.5mm
 73
     1
 44
1.0
  0
MTEXT
  5
178
330
143
100
AcDbEntity
  8
Symbols(ISO)
 62
     7
100
AcDbMText
 10
-19.99999999999985
 20
11.99999999999992
 30
0.0
 40
1.49859994649887
 41
0.0
 71
     5
 72
     1
  1
\fArial|b0|i0;\H1.4986;±0,44
  7
Text__3.5mm
 73
     1
 44
1.0
  0
MTEXT
  5
179
330
143
100
AcDbEntity
  8
Symbols(ISO)
 62
     7
100
AcDbMText
 10
-11.99999999999985
 20
11.99999999999992
 30
0.0
 40
1.49859994649887
 41
0.0
 71
     5
 72
     1
  1
\fArial|b0|i0;\H1.4986;±0,51
  7
Text__3.5mm
 73
     1
 44
1.0
  0
MTEXT
  5
17A
330
143
100
AcDbEntity
  8
Symbols(ISO)
 62
     7
100
AcDbMText
 10
-3.999999999999843
 20
11.99999999999992
 30
0.0
 40
1.49859994649887
 41
0.0
 71
     5
 72
     1
  1
\fArial|b0|i0;\H1.4986;±0,60
  7
Text__3.5mm
 73
     1
 44
1.0
  0
ENDBLK
  5
145
330
143
100
AcDbEntity
  8
0
100
AcDbBlockEnd
  0
BLOCK
  5
17C
330
17B
100
AcDbEntity
  8
0
100
AcDbBlockBegin
  2
DIN 16901 - 140 A
 70
     0
 10
0.0
 20
0.0
 30
0.0
  3
DIN 16901 - 140 A
  1

  0
LINE
  5
17E
330
17B
100
AcDbEntity
  8
Sketch Geometry(ISO)
100
AcDbLine
 10
-116.0
 20
24.00000000000002
 30
0.0
 11
0.0
 21
24.00000000000002
 31
0.0
  0
LINE
  5
17F
330
17B
100
AcDbEntity
  8
Sketch Geometry(ISO)
100
AcDbLine
 10
0.0
 20
24.00000000000002
 30
0.0
 11
0.0
 21
6.000000000000014
 31
0.0
  0
LINE
  5
180
330
17B
100
AcDbEntity
  8
Sketch Geometry(ISO)
100
AcDbLine
 10
0.0
 20
6.000000000000014
 30
0.0
 11
-116.0
 21
6.000000000000014
 31
0.0
  0
LINE
  5
181
330
17B
100
AcDbEntity
  8
Sketch Geometry(ISO)
100
AcDbLine
 10
-116.0
 20
6.000000000000014
 30
0.0
 11
-116.0
 21
24.00000000000002
 31
0.0
  0
LINE
  5
182
330
17B
100
AcDbEntity
  8
Sketch Geometry(ISO)
100
AcDbLine
 10
0.0
 20
10.0
 30
0.0
 11
-116.0
 21
10.0
 31
0.0
  0
LINE
  5
183
330
17B
100
AcDbEntity
  8
Sketch Geometry(ISO)
100
AcDbLine
 10
-116.0
 20
17.00000000000003
 30
0.0
 11
0.0
 21
17.00000000000003
 31
0.0
  0
LINE
  5
184
330
17B
100
AcDbEntity
  8
Sketch Geometry(ISO)
370
    35
100
AcDbLine
 10
-56.00000000000001
 20
6.000000000000014
 30
0.0
 11
-56.00000000000001
 21
17.00000000000003
 31
0.0
  0
LINE
  5
185
330
17B
100
AcDbEntity
  8
Sketch Geometry(ISO)
370
    35
100
AcDbLine
 10
-40.00000000000001
 20
17.00000000000003
 30
0.0
 11
-40.00000000000001
 21
6.000000000000014
 31
0.0
  0
LINE
  5
186
330
17B
100
AcDbEntity
  8
Sketch Geometry(ISO)
370
    35
100
AcDbLine
 10
-104.0
 20
17.00000000000003
 30
0.0
 11
-104.0
 21
6.000000000000014
 31
0.0
  0
LINE
  5
187
330
17B
100
AcDbEntity
  8
Sketch Geometry(ISO)
370
    35
100
AcDbLine
 10
-96.00000000000001
 20
17.00000000000003
 30
0.0
 11
-96.00000000000001
 21
6.000000000000014
 31
0.0
  0
LINE
  5
188
330
17B
100
AcDbEntity
  8
Sketch Geometry(ISO)
370
    35
100
AcDbLine
 10
-88.0
 20
17.00000000000003
 30
0.0
 11
-88.0
 21
6.000000000000014
 31
0.0
  0
LINE
  5
189
330
17B
100
AcDbEntity
  8
Sketch Geometry(ISO)
370
    35
100
AcDbLine
 10
-80.00000000000001
 20
17.00000000000003
 30
0.0
 11
-80.00000000000001
 21
6.000000000000014
 31
0.0
  0
LINE
  5
18A
330
17B
100
AcDbEntity
  8
Sketch Geometry(ISO)
370
    35
100
AcDbLine
 10
-72.00000000000001
 20
17.00000000000003
 30
0.0
 11
-72.00000000000001
 21
6.000000000000014
 31
0.0
  0
LINE
  5
18B
330
17B
100
AcDbEntity
  8
Sketch Geometry(ISO)
370
    35
100
AcDbLine
 10
-64.00000000000003
 20
17.00000000000003
 30
0.0
 11
-64.00000000000003
 21
6.000000000000014
 31
0.0
  0
LINE
  5
18C
330
17B
100
AcDbEntity
  8
Sketch Geometry(ISO)
370
    35
100
AcDbLine
 10
-32.00000000000001
 20
17.00000000000003
 30
0.0
 11
-32.00000000000001
 21
6.000000000000014
 31
0.0
  0
LINE
  5
18D
330
17B
100
AcDbEntity
  8
Sketch Geometry(ISO)
370
    35
100
AcDbLine
 10
-24.0
 20
17.00000000000003
 30
0.0
 11
-24.0
 21
6.000000000000014
 31
0.0
  0
LINE
  5
18E
330
17B
100
AcDbEntity
  8
Sketch Geometry(ISO)
370
    35
100
AcDbLine
 10
-16.00000000000001
 20
17.00000000000003
 30
0.0
 11
-16.00000000000001
 21
6.000000000000014
 31
0.0
  0
LINE
  5
18F
330
17B
100
AcDbEntity
  8
Sketch Geometry(ISO)
370
    35
100
AcDbLine
 10
-8.000000000000007
 20
17.00000000000003
 30
0.0
 11
-8.000000000000007
 21
6.000000000000014
 31
0.0
  0
LINE
  5
190
330
17B
100
AcDbEntity
  8
Sketch Geometry(ISO)
370
    35
100
AcDbLine
 10
-48.0
 20
6.000000000000014
 30
0.0
 11
-48.0
 21
17.00000000000003
 31
0.0
  0
LINE
  5
191
330
17B
100
AcDbEntity
  8
Sketch Geometry(ISO)
100
AcDbLine
 10
-116.0
 20
6.000000000000014
 30
0.0
 11
0.0
 21
6.000000000000014
 31
0.0
  0
LINE
  5
192
330
17B
100
AcDbEntity
  8
Sketch Geometry(ISO)
100
AcDbLine
 10
0.0
 20
6.000000000000014
 30
0.0
 11
0.0
 21
0.0
 31
0.0
  0
LINE
  5
193
330
17B
100
AcDbEntity
  8
Sketch Geometry(ISO)
100
AcDbLine
 10
0.0
 20
0.0
 30
0.0
 11
-116.0
 21
0.0
 31
0.0
  0
LINE
  5
194
330
17B
100
AcDbEntity
  8
Sketch Geometry(ISO)
100
AcDbLine
 10
-116.0
 20
0.0
 30
0.0
 11
-116.0
 21
6.000000000000014
 31
0.0
  0
MTEXT
  5
195
330
17B
100
AcDbEntity
  8
Symbols(ISO)
 62
     7
100
AcDbMText
 10
-58.00000000000003
 20
20.75062674035628
 30
0.0
 40
1.49859994649887
 41
0.0
 71
     5
 72
     1
  1
\fArial|b0|i0;\H1.4986;Allgemeintoleranzen DIN 16901 - 140 A / Radien-, Winkel-, Form- und Lagetoleranzen DIN ISO 2768-mLE / DIN 7167\PGeneral tolerances DIN 16901 - 140 A / radius, angle, geometrical tolerances DIN ISO 2768-mLE / DIN 7167
  7
Text__3.5mm
 73
     2
 44
0.9442214369773864
  0
MTEXT
  5
196
330
17B
100
AcDbEntity
  8
Symbols(ISO)
 62
     7
100
AcDbMText
 10
-110.0
 20
13.72294209649165
 30
0.0
 40
1.500000059604644
 41
0.0
 71
     5
 72
     1
  1
\fArial|b1|i0;\H1.5000;über / above\Pbis / up to
  7
Text__3.5mm
 73
     2
 44
0.9442214369773864
  0
MTEXT
  5
197
330
17B
100
AcDbEntity
  8
Symbols(ISO)
 62
     7
100
AcDbMText
 10
-58.0
 20
3.250626740356281
 30
0.0
 40
1.49859994649887
 41
114.3471630706142
 71
     5
 72
     1
  1
\fArial|b0|i0;\H1.4986;Material:EVA, CA, PA11, PA6, PA66, PA12, PBT, POM|<150mm, PP-gefüllt/with filler\PMaterial nicht in DIN 16 901 / Material not covered by DIN 16 901: PA66 / PE, EPS
  7
Text__3.5mm
 73
     2
 44
0.9442214369773864
  0
MTEXT
  5
198
330
17B
100
AcDbEntity
  8
Symbols(ISO)
 62
     7
100
AcDbMText
 10
-100.0
 20
13.2473777582248
 30
0.0
 40
1.49859994649887
 41
0.0
 71
     5
 72
     1
  1
\fArial|b0|i0;\H1.4986;0\P1
  7
Text__3.5mm
 73
     2
 44
0.9442214369773864
  0
MTEXT
  5
199
330
17B
100
AcDbEntity
  8
Symbols(ISO)
 62
     7
100
AcDbMText
 10
-76.0
 20
13.2767222703745
 30
0.0
 40
1.49859994649887
 41
0.0
 71
     5
 72
     1
  1
\fArial|b0|i0;\H1.4986;6\P10
  7
Text__3.5mm
 73
     2
 44
0.9442214369773864
  0
MTEXT
  5
19A
330
17B
100
AcDbEntity
  8
Symbols(ISO)
 62
     7
100
AcDbMText
 10
-84.0
 20
13.2767222703745
 30
0.0
 40
1.49859994649887
 41
0.0
 71
     5
 72
     1
  1
\fArial|b0|i0;\H1.4986;3\P6
  7
Text__3.5mm
 73
     2
 44
0.9442214369773864
  0
MTEXT
  5
19B
330
17B
100
AcDbEntity
  8
Symbols(ISO)
 62
     7
100
AcDbMText
 10
-92.00000000000001
 20
13.2767222703745
 30
0.0
 40
1.49859994649887
 41
0.0
 71
     5
 72
     1
  1
\fArial|b0|i0;\H1.4986;1\P3
  7
Text__3.5mm
 73
     2
 44
0.9442214369773864
  0
MTEXT
  5
19C
330
17B
100
AcDbEntity
  8
Symbols(ISO)
 62
     7
100
AcDbMText
 10
-67.99999999999998
 20
13.2767222703745
 30
0.0
 40
1.49859994649887
 41
0.0
 71
     5
 72
     1
  1
\fArial|b0|i0;\H1.4986;10\P15
  7
Text__3.5mm
 73
     2
 44
0.9442214369773864
  0
MTEXT
  5
19D
330
17B
100
AcDbEntity
  8
Symbols(ISO)
 62
     7
100
AcDbMText
 10
-43.99999999999997
 20
13.2767222703745
 30
0.0
 40
1.49859994649887
 41
0.0
 71
     5
 72
     1
  1
\fArial|b0|i0;\H1.4986;30\P40
  7
Text__3.5mm
 73
     2
 44
0.9442214369773864
  0
MTEXT
  5
19E
330
17B
100
AcDbEntity
  8
Symbols(ISO)
 62
     7
100
AcDbMText
 10
-51.99999999999997
 20
13.2767222703745
 30
0.0
 40
1.49859994649887
 41
0.0
 71
     5
 72
     1
  1
\fArial|b0|i0;\H1.4986;22\P30
  7
Text__3.5mm
 73
     2
 44
0.9442214369773864
  0
MTEXT
  5
19F
330
17B
100
AcDbEntity
  8
Symbols(ISO)
 62
     7
100
AcDbMText
 10
-59.99999999999999
 20
13.2473777582248
 30
0.0
 40
1.49859994649887
 41
0.0
 71
     5
 72
     1
  1
\fArial|b0|i0;\H1.4986;15\P22
  7
Text__3.5mm
 73
     2
 44
0.9442214369773864
  0
MTEXT
  5
1A0
330
17B
100
AcDbEntity
  8
Symbols(ISO)
 62
     7
100
AcDbMText
 10
-3.99999999999995
 20
13.2767222703745
 30
0.0
 40
1.49859994649887
 41
0.0
 71
     5
 72
     1
  1
\fArial|b0|i0;\H1.4986;120\P160
  7
Text__3.5mm
 73
     2
 44
0.9442214369773864
  0
MTEXT
  5
1A1
330
17B
100
AcDbEntity
  8
Symbols(ISO)
 62
     7
100
AcDbMText
 10
-11.99999999999995
 20
13.2767222703745
 30
0.0
 40
1.49859994649887
 41
0.0
 71
     5
 72
     1
  1
\fArial|b0|i0;\H1.4986;90\P120
  7
Text__3.5mm
 73
     2
 44
0.9442214369773864
  0
MTEXT
  5
1A2
330
17B
100
AcDbEntity
  8
Symbols(ISO)
 62
     7
100
AcDbMText
 10
-19.99999999999994
 20
13.2767222703745
 30
0.0
 40
1.49859994649887
 41
0.0
 71
     5
 72
     1
  1
\fArial|b0|i0;\H1.4986;70\P90
  7
Text__3.5mm
 73
     2
 44
0.9442214369773864
  0
MTEXT
  5
1A3
330
17B
100
AcDbEntity
  8
Symbols(ISO)
 62
     7
100
AcDbMText
 10
-27.99999999999995
 20
13.2767222703745
 30
0.0
 40
1.49859994649887
 41
0.0
 71
     5
 72
     1
  1
\fArial|b0|i0;\H1.4986;53\P70
  7
Text__3.5mm
 73
     2
 44
0.9442214369773864
  0
MTEXT
  5
1A4
330
17B
100
AcDbEntity
  8
Symbols(ISO)
 62
     7
100
AcDbMText
 10
-35.99999999999996
 20
13.2767222703745
 30
0.0
 40
1.49859994649887
 41
0.0
 71
     5
 72
     1
  1
\fArial|b0|i0;\H1.4986;40\P53
  7
Text__3.5mm
 73
     2
 44
0.9442214369773864
  0
MTEXT
  5
1A5
330
17B
100
AcDbEntity
  8
Symbols(ISO)
 62
     7
100
AcDbMText
 10
-100.0
 20
8.000000000000007
 30
0.0
 40
1.49859994649887
 41
0.0
 71
     5
 72
     1
  1
\fArial|b0|i0;\H1.4986;±0,20
  7
Text__3.5mm
 73
     1
 44
1.0
  0
MTEXT
  5
1A6
330
17B
100
AcDbEntity
  8
Symbols(ISO)
 62
     7
100
AcDbMText
 10
-27.99999999999995
 20
8.000000000000007
 30
0.0
 40
1.49859994649887
 41
0.0
 71
     5
 72
     1
  1
\fArial|b0|i0;\H1.4986;±0,50
  7
Text__3.5mm
 73
     1
 44
1.0
  0
MTEXT
  5
1A7
330
17B
100
AcDbEntity
  8
Symbols(ISO)
 62
     7
100
AcDbMText
 10
-76.0
 20
8.000000000000007
 30
0.0
 40
1.49859994649887
 41
0.0
 71
     5
 72
     1
  1
\fArial|b0|i0;\H1.4986;±0,24
  7
Text__3.5mm
 73
     1
 44
1.0
  0
MTEXT
  5
1A8
330
17B
100
AcDbEntity
  8
Symbols(ISO)
 62
     7
100
AcDbMText
 10
-84.0
 20
8.000000000000007
 30
0.0
 40
1.49859994649887
 41
0.0
 71
     5
 72
     1
  1
\fArial|b0|i0;\H1.4986;±0,22
  7
Text__3.5mm
 73
     1
 44
1.0
  0
MTEXT
  5
1A9
330
17B
100
AcDbEntity
  8
Symbols(ISO)
 62
     7
100
AcDbMText
 10
-67.99999999999998
 20
8.000000000000007
 30
0.0
 40
1.49859994649887
 41
0.0
 71
     5
 72
     1
  1
\fArial|b0|i0;\H1.4986;±0,27
  7
Text__3.5mm
 73
     1
 44
1.0
  0
MTEXT
  5
1AA
330
17B
100
AcDbEntity
  8
Symbols(ISO)
 62
     7
100
AcDbMText
 10
-59.99999999999999
 20
8.000000000000007
 30
0.0
 40
1.49859994649887
 41
0.0
 71
     5
 72
     1
  1
\fArial|b0|i0;\H1.4986;±0,30
  7
Text__3.5mm
 73
     1
 44
1.0
  0
MTEXT
  5
1AB
330
17B
100
AcDbEntity
  8
Symbols(ISO)
 62
     7
100
AcDbMText
 10
-51.99999999999997
 20
8.000000000000007
 30
0.0
 40
1.49859994649887
 41
0.0
 71
     5
 72
     1
  1
\fArial|b0|i0;\H1.4986;±0,34
  7
Text__3.5mm
 73
     1
 44
1.0
  0
MTEXT
  5
1AC
330
17B
100
AcDbEntity
  8
Symbols(ISO)
 62
     7
100
AcDbMText
 10
-43.99999999999997
 20
8.000000000000007
 30
0.0
 40
1.49859994649887
 41
0.0
 71
     5
 72
     1
  1
\fArial|b0|i0;\H1.4986;±0,38
  7
Text__3.5mm
 73
     1
 44
1.0
  0
MTEXT
  5
1AD
330
17B
100
AcDbEntity
  8
Symbols(ISO)
 62
     7
100
AcDbMText
 10
-35.99999999999996
 20
8.000000000000007
 30
0.0
 40
1.49859994649887
 41
0.0
 71
     5
 72
     1
  1
\fArial|b0|i0;\H1.4986;±0,43
  7
Text__3.5mm
 73
     1
 44
1.0
  0
MTEXT
  5
1AE
330
17B
100
AcDbEntity
  8
Symbols(ISO)
 62
     7
100
AcDbMText
 10
-92.00000000000001
 20
8.000000000000007
 30
0.0
 40
1.49859994649887
 41
0.0
 71
     5
 72
     1
  1
\fArial|b0|i0;\H1.4986;±0,21
  7
Text__3.5mm
 73
     1
 44
1.0
  0
MTEXT
  5
1AF
330
17B
100
AcDbEntity
  8
Symbols(ISO)
 62
     7
100
AcDbMText
 10
-19.99999999999994
 20
8.000000000000007
 30
0.0
 40
1.49859994649887
 41
0.0
 71
     5
 72
     1
  1
\fArial|b0|i0;\H1.4986;±0,60
  7
Text__3.5mm
 73
     1
 44
1.0
  0
MTEXT
  5
1B0
330
17B
100
AcDbEntity
  8
Symbols(ISO)
 62
     7
100
AcDbMText
 10
-11.99999999999995
 20
8.000000000000007
 30
0.0
 40
1.49859994649887
 41
0.0
 71
     5
 72
     1
  1
\fArial|b0|i0;\H1.4986;±0,70
  7
Text__3.5mm
 73
     1
 44
1.0
  0
MTEXT
  5
1B1
330
17B
100
AcDbEntity
  8
Symbols(ISO)
 62
     7
100
AcDbMText
 10
-3.99999999999995
 20
8.000000000000007
 30
0.0
 40
1.49859994649887
 41
0.0
 71
     5
 72
     1
  1
\fArial|b0|i0;\H1.4986;±0,85
  7
Text__3.5mm
 73
     1
 44
1.0
  0
ENDBLK
  5
17D
330
17B
100
AcDbEntity
  8
0
100
AcDbBlockEnd
  0
BLOCK
  5
1B3
330
1B2
100
AcDbEntity
  8
0
100
AcDbBlockBegin
  2
DIN 16901 - 150 A
 70
     0
 10
0.0
 20
0.0
 30
0.0
  3
DIN 16901 - 150 A
  1

  0
LINE
  5
1B5
330
1B2
100
AcDbEntity
  8
Sketch Geometry(ISO)
100
AcDbLine
 10
-116.0
 20
20.0
 30
0.0
 11
0.0
 21
20.0
 31
0.0
  0
LINE
  5
1B6
330
1B2
100
AcDbEntity
  8
Sketch Geometry(ISO)
100
AcDbLine
 10
0.0
 20
20.0
 30
0.0
 11
0.0
 21
2.999999999999971
 31
0.0
  0
LINE
  5
1B7
330
1B2
100
AcDbEntity
  8
Sketch Geometry(ISO)
100
AcDbLine
 10
0.0
 20
2.999999999999971
 30
0.0
 11
-116.0
 21
2.999999999999971
 31
0.0
  0
LINE
  5
1B8
330
1B2
100
AcDbEntity
  8
Sketch Geometry(ISO)
100
AcDbLine
 10
-116.0
 20
2.999999999999971
 30
0.0
 11
-116.0
 21
20.0
 31
0.0
  0
LINE
  5
1B9
330
1B2
100
AcDbEntity
  8
Sketch Geometry(ISO)
100
AcDbLine
 10
0.0
 20
6.999999999999992
 30
0.0
 11
-116.0
 21
6.999999999999992
 31
0.0
  0
LINE
  5
1BA
330
1B2
100
AcDbEntity
  8
Sketch Geometry(ISO)
100
AcDbLine
 10
-116.0
 20
13.99999999999998
 30
0.0
 11
0.0
 21
13.99999999999998
 31
0.0
  0
LINE
  5
1BB
330
1B2
100
AcDbEntity
  8
Sketch Geometry(ISO)
370
    35
100
AcDbLine
 10
-56.00000000000001
 20
2.999999999999971
 30
0.0
 11
-56.00000000000001
 21
13.99999999999998
 31
0.0
  0
LINE
  5
1BC
330
1B2
100
AcDbEntity
  8
Sketch Geometry(ISO)
370
    35
100
AcDbLine
 10
-40.00000000000001
 20
13.99999999999998
 30
0.0
 11
-40.00000000000001
 21
2.999999999999971
 31
0.0
  0
LINE
  5
1BD
330
1B2
100
AcDbEntity
  8
Sketch Geometry(ISO)
370
    35
100
AcDbLine
 10
-104.0
 20
13.99999999999998
 30
0.0
 11
-104.0
 21
2.999999999999971
 31
0.0
  0
LINE
  5
1BE
330
1B2
100
AcDbEntity
  8
Sketch Geometry(ISO)
370
    35
100
AcDbLine
 10
-96.00000000000001
 20
13.99999999999998
 30
0.0
 11
-96.00000000000001
 21
2.999999999999971
 31
0.0
  0
LINE
  5
1BF
330
1B2
100
AcDbEntity
  8
Sketch Geometry(ISO)
370
    35
100
AcDbLine
 10
-88.0
 20
13.99999999999998
 30
0.0
 11
-88.0
 21
2.999999999999971
 31
0.0
  0
LINE
  5
1C0
330
1B2
100
AcDbEntity
  8
Sketch Geometry(ISO)
370
    35
100
AcDbLine
 10
-80.00000000000001
 20
13.99999999999998
 30
0.0
 11
-80.00000000000001
 21
2.999999999999971
 31
0.0
  0
LINE
  5
1C1
330
1B2
100
AcDbEntity
  8
Sketch Geometry(ISO)
370
    35
100
AcDbLine
 10
-72.00000000000001
 20
13.99999999999998
 30
0.0
 11
-72.00000000000001
 21
2.999999999999971
 31
0.0
  0
LINE
  5
1C2
330
1B2
100
AcDbEntity
  8
Sketch Geometry(ISO)
370
    35
100
AcDbLine
 10
-64.00000000000003
 20
13.99999999999998
 30
0.0
 11
-64.00000000000003
 21
2.999999999999971
 31
0.0
  0
LINE
  5
1C3
330
1B2
100
AcDbEntity
  8
Sketch Geometry(ISO)
370
    35
100
AcDbLine
 10
-32.00000000000001
 20
13.99999999999998
 30
0.0
 11
-32.00000000000001
 21
2.999999999999971
 31
0.0
  0
LINE
  5
1C4
330
1B2
100
AcDbEntity
  8
Sketch Geometry(ISO)
370
    35
100
AcDbLine
 10
-24.0
 20
13.99999999999998
 30
0.0
 11
-24.0
 21
2.999999999999971
 31
0.0
  0
LINE
  5
1C5
330
1B2
100
AcDbEntity
  8
Sketch Geometry(ISO)
370
    35
100
AcDbLine
 10
-16.00000000000001
 20
13.99999999999998
 30
0.0
 11
-16.00000000000001
 21
2.999999999999971
 31
0.0
  0
LINE
  5
1C6
330
1B2
100
AcDbEntity
  8
Sketch Geometry(ISO)
370
    35
100
AcDbLine
 10
-8.000000000000007
 20
13.99999999999998
 30
0.0
 11
-8.000000000000007
 21
2.999999999999971
 31
0.0
  0
LINE
  5
1C7
330
1B2
100
AcDbEntity
  8
Sketch Geometry(ISO)
370
    35
100
AcDbLine
 10
-48.0
 20
2.999999999999971
 30
0.0
 11
-48.0
 21
13.99999999999998
 31
0.0
  0
LINE
  5
1C8
330
1B2
100
AcDbEntity
  8
Sketch Geometry(ISO)
100
AcDbLine
 10
-116.0
 20
2.999999999999971
 30
0.0
 11
0.0
 21
2.999999999999971
 31
0.0
  0
LINE
  5
1C9
330
1B2
100
AcDbEntity
  8
Sketch Geometry(ISO)
100
AcDbLine
 10
0.0
 20
2.999999999999971
 30
0.0
 11
0.0
 21
0.0
 31
0.0
  0
LINE
  5
1CA
330
1B2
100
AcDbEntity
  8
Sketch Geometry(ISO)
100
AcDbLine
 10
0.0
 20
0.0
 30
0.0
 11
-116.0
 21
0.0
 31
0.0
  0
LINE
  5
1CB
330
1B2
100
AcDbEntity
  8
Sketch Geometry(ISO)
100
AcDbLine
 10
-116.0
 20
0.0
 30
0.0
 11
-116.0
 21
2.999999999999971
 31
0.0
  0
MTEXT
  5
1CC
330
1B2
100
AcDbEntity
  8
Symbols(ISO)
 62
     7
100
AcDbMText
 10
-58.00000000000003
 20
17.25062674035626
 30
0.0
 40
1.49859994649887
 41
0.0
 71
     5
 72
     1
  1
\fArial|b0|i0;\H1.4986;Allgemeintoleranzen DIN 16901 - 150 A / Radien-, Winkel-, Form- und Lagetoleranzen DIN ISO 2768-mLE / DIN 7167\PGeneral tolerances DIN 16901 - 150 A / radius, angle, geometrical tolerances DIN ISO 2768-mLE / DIN 7167
  7
Text__3.5mm
 73
     2
 44
0.9442214369773864
  0
MTEXT
  5
1CD
330
1B2
100
AcDbEntity
  8
Symbols(ISO)
 62
     7
100
AcDbMText
 10
-110.0
 20
10.72294209649161
 30
0.0
 40
1.500000059604644
 41
0.0
 71
     5
 72
     1
  1
\fArial|b1|i0;\H1.5000;über / above\Pbis / up to
  7
Text__3.5mm
 73
     2
 44
0.9442214369773864
  0
MTEXT
  5
1CE
330
1B2
100
AcDbEntity
  8
Symbols(ISO)
 62
     7
100
AcDbMText
 10
-58.0
 20
1.499999999999985
 30
0.0
 40
1.49859994649887
 41
114.3471630706142
 71
     5
 72
     1
  1
\fArial|b0|i0;\H1.4986;Material: PE, PP, POM |>=150   Material nicht in DIN 16 901 / Material not covered by DIN 16 901:
  7
Text__3.5mm
 73
     1
 44
1.0
  0
MTEXT
  5
1CF
330
1B2
100
AcDbEntity
  8
Symbols(ISO)
 62
     7
100
AcDbMText
 10
-100.0
 20
10.24737775822476
 30
0.0
 40
1.49859994649887
 41
0.0
 71
     5
 72
     1
  1
\fArial|b0|i0;\H1.4986;0\P1
  7
Text__3.5mm
 73
     2
 44
0.9442214369773864
  0
MTEXT
  5
1D0
330
1B2
100
AcDbEntity
  8
Symbols(ISO)
 62
     7
100
AcDbMText
 10
-76.0
 20
10.27672227037445
 30
0.0
 40
1.49859994649887
 41
0.0
 71
     5
 72
     1
  1
\fArial|b0|i0;\H1.4986;6\P10
  7
Text__3.5mm
 73
     2
 44
0.9442214369773864
  0
MTEXT
  5
1D1
330
1B2
100
AcDbEntity
  8
Symbols(ISO)
 62
     7
100
AcDbMText
 10
-84.0
 20
10.27672227037445
 30
0.0
 40
1.49859994649887
 41
0.0
 71
     5
 72
     1
  1
\fArial|b0|i0;\H1.4986;3\P6
  7
Text__3.5mm
 73
     2
 44
0.9442214369773864
  0
MTEXT
  5
1D2
330
1B2
100
AcDbEntity
  8
Symbols(ISO)
 62
     7
100
AcDbMText
 10
-92.00000000000001
 20
10.27672227037445
 30
0.0
 40
1.49859994649887
 41
0.0
 71
     5
 72
     1
  1
\fArial|b0|i0;\H1.4986;1\P3
  7
Text__3.5mm
 73
     2
 44
0.9442214369773864
  0
MTEXT
  5
1D3
330
1B2
100
AcDbEntity
  8
Symbols(ISO)
 62
     7
100
AcDbMText
 10
-67.99999999999998
 20
10.27672227037445
 30
0.0
 40
1.49859994649887
 41
0.0
 71
     5
 72
     1
  1
\fArial|b0|i0;\H1.4986;10\P15
  7
Text__3.5mm
 73
     2
 44
0.9442214369773864
  0
MTEXT
  5
1D4
330
1B2
100
AcDbEntity
  8
Symbols(ISO)
 62
     7
100
AcDbMText
 10
-43.99999999999997
 20
10.27672227037445
 30
0.0
 40
1.49859994649887
 41
0.0
 71
     5
 72
     1
  1
\fArial|b0|i0;\H1.4986;30\P40
  7
Text__3.5mm
 73
     2
 44
0.9442214369773864
  0
MTEXT
  5
1D5
330
1B2
100
AcDbEntity
  8
Symbols(ISO)
 62
     7
100
AcDbMText
 10
-51.99999999999997
 20
10.27672227037445
 30
0.0
 40
1.49859994649887
 41
0.0
 71
     5
 72
     1
  1
\fArial|b0|i0;\H1.4986;22\P30
  7
Text__3.5mm
 73
     2
 44
0.9442214369773864
  0
MTEXT
  5
1D6
330
1B2
100
AcDbEntity
  8
Symbols(ISO)
 62
     7
100
AcDbMText
 10
-59.99999999999999
 20
10.24737775822476
 30
0.0
 40
1.49859994649887
 41
0.0
 71
     5
 72
     1
  1
\fArial|b0|i0;\H1.4986;15\P22
  7
Text__3.5mm
 73
     2
 44
0.9442214369773864
  0
MTEXT
  5
1D7
330
1B2
100
AcDbEntity
  8
Symbols(ISO)
 62
     7
100
AcDbMText
 10
-3.99999999999995
 20
10.27672227037445
 30
0.0
 40
1.49859994649887
 41
0.0
 71
     5
 72
     1
  1
\fArial|b0|i0;\H1.4986;120\P160
  7
Text__3.5mm
 73
     2
 44
0.9442214369773864
  0
MTEXT
  5
1D8
330
1B2
100
AcDbEntity
  8
Symbols(ISO)
 62
     7
100
AcDbMText
 10
-11.99999999999995
 20
10.27672227037445
 30
0.0
 40
1.49859994649887
 41
0.0
 71
     5
 72
     1
  1
\fArial|b0|i0;\H1.4986;90\P120
  7
Text__3.5mm
 73
     2
 44
0.9442214369773864
  0
MTEXT
  5
1D9
330
1B2
100
AcDbEntity
  8
Symbols(ISO)
 62
     7
100
AcDbMText
 10
-19.99999999999994
 20
10.27672227037445
 30
0.0
 40
1.49859994649887
 41
0.0
 71
     5
 72
     1
  1
\fArial|b0|i0;\H1.4986;70\P90
  7
Text__3.5mm
 73
     2
 44
0.9442214369773864
  0
MTEXT
  5
1DA
330
1B2
100
AcDbEntity
  8
Symbols(ISO)
 62
     7
100
AcDbMText
 10
-27.99999999999995
 20
10.27672227037445
 30
0.0
 40
1.49859994649887
 41
0.0
 71
     5
 72
     1
  1
\fArial|b0|i0;\H1.4986;53\P70
  7
Text__3.5mm
 73
     2
 44
0.9442214369773864
  0
MTEXT
  5
1DB
330
1B2
100
AcDbEntity
  8
Symbols(ISO)
 62
     7
100
AcDbMText
 10
-35.99999999999996
 20
10.27672227037445
 30
0.0
 40
1.49859994649887
 41
0.0
 71
     5
 72
     1
  1
\fArial|b0|i0;\H1.4986;40\P53
  7
Text__3.5mm
 73
     2
 44
0.9442214369773864
  0
MTEXT
  5
1DC
330
1B2
100
AcDbEntity
  8
Symbols(ISO)
 62
     7
100
AcDbMText
 10
-100.0
 20
4.999999999999964
 30
0.0
 40
1.49859994649887
 41
0.0
 71
     5
 72
     1
  1
\fArial|b0|i0;\H1.4986;±0,23
  7
Text__3.5mm
 73
     1
 44
1.0
  0
MTEXT
  5
1DD
330
1B2
100
AcDbEntity
  8
Symbols(ISO)
 62
     7
100
AcDbMText
 10
-27.99999999999995
 20
4.999999999999964
 30
0.0
 40
1.49859994649887
 41
0.0
 71
     5
 72
     1
  1
\fArial|b0|i0;\H1.4986;±0,68
  7
Text__3.5mm
 73
     1
 44
1.0
  0
MTEXT
  5
1DE
330
1B2
100
AcDbEntity
  8
Symbols(ISO)
 62
     7
100
AcDbMText
 10
-76.0
 20
4.999999999999964
 30
0.0
 40
1.49859994649887
 41
0.0
 71
     5
 72
     1
  1
\fArial|b0|i0;\H1.4986;±0,30
  7
Text__3.5mm
 73
     1
 44
1.0
  0
MTEXT
  5
1DF
330
1B2
100
AcDbEntity
  8
Symbols(ISO)
 62
     7
100
AcDbMText
 10
-84.0
 20
4.999999999999964
 30
0.0
 40
1.49859994649887
 41
0.0
 71
     5
 72
     1
  1
\fArial|b0|i0;\H1.4986;±0,27
  7
Text__3.5mm
 73
     1
 44
1.0
  0
MTEXT
  5
1E0
330
1B2
100
AcDbEntity
  8
Symbols(ISO)
 62
     7
100
AcDbMText
 10
-67.99999999999998
 20
4.999999999999964
 30
0.0
 40
1.49859994649887
 41
0.0
 71
     5
 72
     1
  1
\fArial|b0|i0;\H1.4986;±0,34
  7
Text__3.5mm
 73
     1
 44
1.0
  0
MTEXT
  5
1E1
330
1B2
100
AcDbEntity
  8
Symbols(ISO)
 62
     7
100
AcDbMText
 10
-59.99999999999999
 20
4.999999999999964
 30
0.0
 40
1.49859994649887
 41
0.0
 71
     5
 72
     1
  1
\fArial|b0|i0;\H1.4986;±0,38
  7
Text__3.5mm
 73
     1
 44
1.0
  0
MTEXT
  5
1E2
330
1B2
100
AcDbEntity
  8
Symbols(ISO)
 62
     7
100
AcDbMText
 10
-51.99999999999997
 20
4.999999999999964
 30
0.0
 40
1.49859994649887
 41
0.0
 71
     5
 72
     1
  1
\fArial|b0|i0;\H1.4986;±0,43
  7
Text__3.5mm
 73
     1
 44
1.0
  0
MTEXT
  5
1E3
330
1B2
100
AcDbEntity
  8
Symbols(ISO)
 62
     7
100
AcDbMText
 10
-43.99999999999997
 20
4.999999999999964
 30
0.0
 40
1.49859994649887
 41
0.0
 71
     5
 72
     1
  1
\fArial|b0|i0;\H1.4986;±0,49
  7
Text__3.5mm
 73
     1
 44
1.0
  0
MTEXT
  5
1E4
330
1B2
100
AcDbEntity
  8
Symbols(ISO)
 62
     7
100
AcDbMText
 10
-35.99999999999996
 20
4.999999999999964
 30
0.0
 40
1.49859994649887
 41
0.0
 71
     5
 72
     1
  1
\fArial|b0|i0;\H1.4986;±0,57
  7
Text__3.5mm
 73
     1
 44
1.0
  0
MTEXT
  5
1E5
330
1B2
100
AcDbEntity
  8
Symbols(ISO)
 62
     7
100
AcDbMText
 10
-92.00000000000001
 20
4.999999999999964
 30
0.0
 40
1.49859994649887
 41
0.0
 71
     5
 72
     1
  1
\fArial|b0|i0;\H1.4986;±0,25
  7
Text__3.5mm
 73
     1
 44
1.0
  0
MTEXT
  5
1E6
330
1B2
100
AcDbEntity
  8
Symbols(ISO)
 62
     7
100
AcDbMText
 10
-19.99999999999994
 20
4.999999999999964
 30
0.0
 40
1.49859994649887
 41
0.0
 71
     5
 72
     1
  1
\fArial|b0|i0;\H1.4986;±0,81
  7
Text__3.5mm
 73
     1
 44
1.0
  0
MTEXT
  5
1E7
330
1B2
100
AcDbEntity
  8
Symbols(ISO)
 62
     7
100
AcDbMText
 10
-11.99999999999995
 20
4.999999999999964
 30
0.0
 40
1.49859994649887
 41
0.0
 71
     5
 72
     1
  1
\fArial|b0|i0;\H1.4986;±0,97
  7
Text__3.5mm
 73
     1
 44
1.0
  0
MTEXT
  5
1E8
330
1B2
100
AcDbEntity
  8
Symbols(ISO)
 62
     7
100
AcDbMText
 10
-3.99999999999995
 20
4.999999999999964
 30
0.0
 40
1.49859994649887
 41
0.0
 71
     5
 72
     1
  1
\fArial|b0|i0;\H1.4986;±1,20
  7
Text__3.5mm
 73
     1
 44
1.0
  0
ENDBLK
  5
1B4
330
1B2
100
AcDbEntity
  8
0
100
AcDbBlockEnd
  0
BLOCK
  5
1EA
330
1E9
100
AcDbEntity
  8
0
100
AcDbBlockBegin
  2
DIN 16901 - 160 A
 70
     0
 10
0.0
 20
0.0
 30
0.0
  3
DIN 16901 - 160 A
  1

  0
LINE
  5
1EC
330
1E9
100
AcDbEntity
  8
Sketch Geometry(ISO)
100
AcDbLine
 10
-116.0
 20
26.00000000000001
 30
0.0
 11
0.0
 21
26.00000000000001
 31
0.0
  0
LINE
  5
1ED
330
1E9
100
AcDbEntity
  8
Sketch Geometry(ISO)
100
AcDbLine
 10
0.0
 20
26.00000000000001
 30
0.0
 11
0.0
 21
5.999999999999978
 31
0.0
  0
LINE
  5
1EE
330
1E9
100
AcDbEntity
  8
Sketch Geometry(ISO)
100
AcDbLine
 10
0.0
 20
5.999999999999978
 30
0.0
 11
-116.0
 21
5.999999999999978
 31
0.0
  0
LINE
  5
1EF
330
1E9
100
AcDbEntity
  8
Sketch Geometry(ISO)
100
AcDbLine
 10
-116.0
 20
5.999999999999978
 30
0.0
 11
-116.0
 21
26.00000000000001
 31
0.0
  0
LINE
  5
1F0
330
1E9
100
AcDbEntity
  8
Sketch Geometry(ISO)
100
AcDbLine
 10
0.0
 20
10.0
 30
0.0
 11
-116.0
 21
10.0
 31
0.0
  0
LINE
  5
1F1
330
1E9
100
AcDbEntity
  8
Sketch Geometry(ISO)
100
AcDbLine
 10
-116.0
 20
16.99999999999999
 30
0.0
 11
0.0
 21
16.99999999999999
 31
0.0
  0
LINE
  5
1F2
330
1E9
100
AcDbEntity
  8
Sketch Geometry(ISO)
370
    35
100
AcDbLine
 10
-56.00000000000001
 20
6.000000000000014
 30
0.0
 11
-56.00000000000001
 21
16.99999999999999
 31
0.0
  0
LINE
  5
1F3
330
1E9
100
AcDbEntity
  8
Sketch Geometry(ISO)
370
    35
100
AcDbLine
 10
-40.00000000000001
 20
16.99999999999999
 30
0.0
 11
-40.00000000000001
 21
6.000000000000014
 31
0.0
  0
LINE
  5
1F4
330
1E9
100
AcDbEntity
  8
Sketch Geometry(ISO)
370
    35
100
AcDbLine
 10
-104.0
 20
16.99999999999999
 30
0.0
 11
-104.0
 21
6.000000000000014
 31
0.0
  0
LINE
  5
1F5
330
1E9
100
AcDbEntity
  8
Sketch Geometry(ISO)
370
    35
100
AcDbLine
 10
-96.00000000000001
 20
16.99999999999999
 30
0.0
 11
-96.00000000000001
 21
6.000000000000014
 31
0.0
  0
LINE
  5
1F6
330
1E9
100
AcDbEntity
  8
Sketch Geometry(ISO)
370
    35
100
AcDbLine
 10
-88.00000000000002
 20
16.99999999999999
 30
0.0
 11
-88.00000000000002
 21
6.000000000000014
 31
0.0
  0
LINE
  5
1F7
330
1E9
100
AcDbEntity
  8
Sketch Geometry(ISO)
370
    35
100
AcDbLine
 10
-80.00000000000001
 20
16.99999999999999
 30
0.0
 11
-80.00000000000001
 21
6.000000000000014
 31
0.0
  0
LINE
  5
1F8
330
1E9
100
AcDbEntity
  8
Sketch Geometry(ISO)
370
    35
100
AcDbLine
 10
-72.00000000000001
 20
16.99999999999999
 30
0.0
 11
-72.00000000000001
 21
6.000000000000014
 31
0.0
  0
LINE
  5
1F9
330
1E9
100
AcDbEntity
  8
Sketch Geometry(ISO)
370
    35
100
AcDbLine
 10
-64.00000000000003
 20
16.99999999999999
 30
0.0
 11
-64.00000000000003
 21
6.000000000000014
 31
0.0
  0
LINE
  5
1FA
330
1E9
100
AcDbEntity
  8
Sketch Geometry(ISO)
370
    35
100
AcDbLine
 10
-32.00000000000001
 20
16.99999999999999
 30
0.0
 11
-32.00000000000001
 21
6.000000000000014
 31
0.0
  0
LINE
  5
1FB
330
1E9
100
AcDbEntity
  8
Sketch Geometry(ISO)
370
    35
100
AcDbLine
 10
-24.00000000000002
 20
16.99999999999999
 30
0.0
 11
-24.00000000000002
 21
6.000000000000014
 31
0.0
  0
LINE
  5
1FC
330
1E9
100
AcDbEntity
  8
Sketch Geometry(ISO)
370
    35
100
AcDbLine
 10
-16.00000000000001
 20
16.99999999999999
 30
0.0
 11
-16.00000000000001
 21
6.000000000000014
 31
0.0
  0
LINE
  5
1FD
330
1E9
100
AcDbEntity
  8
Sketch Geometry(ISO)
370
    35
100
AcDbLine
 10
-8.000000000000007
 20
16.99999999999999
 30
0.0
 11
-8.000000000000007
 21
6.000000000000014
 31
0.0
  0
LINE
  5
1FE
330
1E9
100
AcDbEntity
  8
Sketch Geometry(ISO)
370
    35
100
AcDbLine
 10
-48.00000000000003
 20
6.000000000000014
 30
0.0
 11
-48.00000000000003
 21
16.99999999999999
 31
0.0
  0
LINE
  5
1FF
330
1E9
100
AcDbEntity
  8
Sketch Geometry(ISO)
100
AcDbLine
 10
-116.0
 20
5.999999999999978
 30
0.0
 11
0.0
 21
5.999999999999978
 31
0.0
  0
LINE
  5
200
330
1E9
100
AcDbEntity
  8
Sketch Geometry(ISO)
100
AcDbLine
 10
0.0
 20
5.999999999999978
 30
0.0
 11
0.0
 21
0.0
 31
0.0
  0
LINE
  5
201
330
1E9
100
AcDbEntity
  8
Sketch Geometry(ISO)
100
AcDbLine
 10
0.0
 20
0.0
 30
0.0
 11
-116.0
 21
0.0
 31
0.0
  0
LINE
  5
202
330
1E9
100
AcDbEntity
  8
Sketch Geometry(ISO)
100
AcDbLine
 10
-116.0
 20
0.0
 30
0.0
 11
-116.0
 21
5.999999999999978
 31
0.0
  0
MTEXT
  5
203
330
1E9
100
AcDbEntity
  8
Symbols(ISO)
 62
     7
100
AcDbMText
 10
-58.00000000000003
 20
21.75062674035626
 30
0.0
 40
1.49859994649887
 41
0.0
 71
     5
 72
     1
  1
\fArial|b0|i0;\H1.4986;Allgemeintoleranzen DIN 16901 - 160 A / Radien-, Winkel-, Form- und Lagetoleranzen DIN ISO 2768-mLE / DIN 7167\PGeneral tolerances DIN 16901 - 160 A / radius, angle, geometrical tolerances DIN ISO 2768-mLE / DIN 7167
  7
Text__3.5mm
 73
     2
 44
0.9442214369773864
  0
MTEXT
  5
204
330
1E9
100
AcDbEntity
  8
Symbols(ISO)
 62
     7
100
AcDbMText
 10
-110.0
 20
13.72294209649162
 30
0.0
 40
1.500000059604644
 41
0.0
 71
     5
 72
     1
  1
\fArial|b1|i0;\H1.5000;über / above\Pbis / up to
  7
Text__3.5mm
 73
     2
 44
0.9442214369773864
  0
MTEXT
  5
205
330
1E9
100
AcDbEntity
  8
Symbols(ISO)
 62
     7
100
AcDbMText
 10
-58.0
 20
2.999999999999971
 30
0.0
 40
1.49859994649887
 41
114.3471630706142
 71
     5
 72
     1
  1
\fArial|b0|i0;\H1.4986;Material: Material nicht in DIN 16 901 / Material not covered by DIN 16 901: PVC-weich/plasticised PVC, SI (LSR), TPE
  7
Text__3.5mm
 73
     1
 44
1.0
  0
MTEXT
  5
206
330
1E9
100
AcDbEntity
  8
Symbols(ISO)
 62
     7
100
AcDbMText
 10
-100.0
 20
13.24737775822477
 30
0.0
 40
1.49859994649887
 41
0.0
 71
     5
 72
     1
  1
\fArial|b0|i0;\H1.4986;0\P1
  7
Text__3.5mm
 73
     2
 44
0.9442214369773864
  0
MTEXT
  5
207
330
1E9
100
AcDbEntity
  8
Symbols(ISO)
 62
     7
100
AcDbMText
 10
-76.0
 20
13.27672227037446
 30
0.0
 40
1.49859994649887
 41
0.0
 71
     5
 72
     1
  1
\fArial|b0|i0;\H1.4986;6\P10
  7
Text__3.5mm
 73
     2
 44
0.9442214369773864
  0
MTEXT
  5
208
330
1E9
100
AcDbEntity
  8
Symbols(ISO)
 62
     7
100
AcDbMText
 10
-84.0
 20
13.27672227037446
 30
0.0
 40
1.49859994649887
 41
0.0
 71
     5
 72
     1
  1
\fArial|b0|i0;\H1.4986;3\P6
  7
Text__3.5mm
 73
     2
 44
0.9442214369773864
  0
MTEXT
  5
209
330
1E9
100
AcDbEntity
  8
Symbols(ISO)
 62
     7
100
AcDbMText
 10
-92.00000000000001
 20
13.27672227037446
 30
0.0
 40
1.49859994649887
 41
0.0
 71
     5
 72
     1
  1
\fArial|b0|i0;\H1.4986;1\P3
  7
Text__3.5mm
 73
     2
 44
0.9442214369773864
  0
MTEXT
  5
20A
330
1E9
100
AcDbEntity
  8
Symbols(ISO)
 62
     7
100
AcDbMText
 10
-67.99999999999998
 20
13.27672227037446
 30
0.0
 40
1.49859994649887
 41
0.0
 71
     5
 72
     1
  1
\fArial|b0|i0;\H1.4986;10\P15
  7
Text__3.5mm
 73
     2
 44
0.9442214369773864
  0
MTEXT
  5
20B
330
1E9
100
AcDbEntity
  8
Symbols(ISO)
 62
     7
100
AcDbMText
 10
-43.99999999999997
 20
13.27672227037446
 30
0.0
 40
1.49859994649887
 41
0.0
 71
     5
 72
     1
  1
\fArial|b0|i0;\H1.4986;30\P40
  7
Text__3.5mm
 73
     2
 44
0.9442214369773864
  0
MTEXT
  5
20C
330
1E9
100
AcDbEntity
  8
Symbols(ISO)
 62
     7
100
AcDbMText
 10
-51.99999999999997
 20
13.27672227037446
 30
0.0
 40
1.49859994649887
 41
0.0
 71
     5
 72
     1
  1
\fArial|b0|i0;\H1.4986;22\P30
  7
Text__3.5mm
 73
     2
 44
0.9442214369773864
  0
MTEXT
  5
20D
330
1E9
100
AcDbEntity
  8
Symbols(ISO)
 62
     7
100
AcDbMText
 10
-59.99999999999999
 20
13.24737775822477
 30
0.0
 40
1.49859994649887
 41
0.0
 71
     5
 72
     1
  1
\fArial|b0|i0;\H1.4986;15\P22
  7
Text__3.5mm
 73
     2
 44
0.9442214369773864
  0
MTEXT
  5
20E
330
1E9
100
AcDbEntity
  8
Symbols(ISO)
 62
     7
100
AcDbMText
 10
-3.99999999999995
 20
13.27672227037446
 30
0.0
 40
1.49859994649887
 41
0.0
 71
     5
 72
     1
  1
\fArial|b0|i0;\H1.4986;120\P160
  7
Text__3.5mm
 73
     2
 44
0.9442214369773864
  0
MTEXT
  5
20F
330
1E9
100
AcDbEntity
  8
Symbols(ISO)
 62
     7
100
AcDbMText
 10
-11.99999999999995
 20
13.27672227037446
 30
0.0
 40
1.49859994649887
 41
0.0
 71
     5
 72
     1
  1
\fArial|b0|i0;\H1.4986;90\P120
  7
Text__3.5mm
 73
     2
 44
0.9442214369773864
  0
MTEXT
  5
210
330
1E9
100
AcDbEntity
  8
Symbols(ISO)
 62
     7
100
AcDbMText
 10
-19.99999999999994
 20
13.27672227037446
 30
0.0
 40
1.49859994649887
 41
0.0
 71
     5
 72
     1
  1
\fArial|b0|i0;\H1.4986;70\P90
  7
Text__3.5mm
 73
     2
 44
0.9442214369773864
  0
MTEXT
  5
211
330
1E9
100
AcDbEntity
  8
Symbols(ISO)
 62
     7
100
AcDbMText
 10
-27.99999999999997
 20
13.27672227037446
 30
0.0
 40
1.49859994649887
 41
0.0
 71
     5
 72
     1
  1
\fArial|b0|i0;\H1.4986;53\P70
  7
Text__3.5mm
 73
     2
 44
0.9442214369773864
  0
MTEXT
  5
212
330
1E9
100
AcDbEntity
  8
Symbols(ISO)
 62
     7
100
AcDbMText
 10
-35.99999999999998
 20
13.27672227037446
 30
0.0
 40
1.49859994649887
 41
0.0
 71
     5
 72
     1
  1
\fArial|b0|i0;\H1.4986;40\P53
  7
Text__3.5mm
 73
     2
 44
0.9442214369773864
  0
MTEXT
  5
213
330
1E9
100
AcDbEntity
  8
Symbols(ISO)
 62
     7
100
AcDbMText
 10
-100.0
 20
7.999999999999971
 30
0.0
 40
1.49859994649887
 41
0.0
 71
     5
 72
     1
  1
\fArial|b0|i0;\H1.4986;±0,28
  7
Text__3.5mm
 73
     1
 44
1.0
  0
MTEXT
  5
214
330
1E9
100
AcDbEntity
  8
Symbols(ISO)
 62
     7
100
AcDbMText
 10
-27.99999999999997
 20
7.999999999999971
 30
0.0
 40
1.49859994649887
 41
0.0
 71
     5
 72
     1
  1
\fArial|b0|i0;\H1.4986;±0,94
  7
Text__3.5mm
 73
     1
 44
1.0
  0
MTEXT
  5
215
330
1E9
100
AcDbEntity
  8
Symbols(ISO)
 62
     7
100
AcDbMText
 10
-76.0
 20
7.999999999999971
 30
0.0
 40
1.49859994649887
 41
0.0
 71
     5
 72
     1
  1
\fArial|b0|i0;\H1.4986;±0,37
  7
Text__3.5mm
 73
     1
 44
1.0
  0
MTEXT
  5
216
330
1E9
100
AcDbEntity
  8
Symbols(ISO)
 62
     7
100
AcDbMText
 10
-84.0
 20
7.999999999999971
 30
0.0
 40
1.49859994649887
 41
0.0
 71
     5
 72
     1
  1
\fArial|b0|i0;\H1.4986;±0,33
  7
Text__3.5mm
 73
     1
 44
1.0
  0
MTEXT
  5
217
330
1E9
100
AcDbEntity
  8
Symbols(ISO)
 62
     7
100
AcDbMText
 10
-67.99999999999998
 20
7.999999999999971
 30
0.0
 40
1.49859994649887
 41
0.0
 71
     5
 72
     1
  1
\fArial|b0|i0;\H1.4986;±0,42
  7
Text__3.5mm
 73
     1
 44
1.0
  0
MTEXT
  5
218
330
1E9
100
AcDbEntity
  8
Symbols(ISO)
 62
     7
100
AcDbMText
 10
-59.99999999999999
 20
7.999999999999971
 30
0.0
 40
1.49859994649887
 41
0.0
 71
     5
 72
     1
  1
\fArial|b0|i0;\H1.4986;±0,49
  7
Text__3.5mm
 73
     1
 44
1.0
  0
MTEXT
  5
219
330
1E9
100
AcDbEntity
  8
Symbols(ISO)
 62
     7
100
AcDbMText
 10
-51.99999999999997
 20
7.999999999999971
 30
0.0
 40
1.49859994649887
 41
0.0
 71
     5
 72
     1
  1
\fArial|b0|i0;\H1.4986;±0,57
  7
Text__3.5mm
 73
     1
 44
1.0
  0
MTEXT
  5
21A
330
1E9
100
AcDbEntity
  8
Symbols(ISO)
 62
     7
100
AcDbMText
 10
-43.99999999999997
 20
7.999999999999971
 30
0.0
 40
1.49859994649887
 41
0.0
 71
     5
 72
     1
  1
\fArial|b0|i0;\H1.4986;±0,66
  7
Text__3.5mm
 73
     1
 44
1.0
  0
MTEXT
  5
21B
330
1E9
100
AcDbEntity
  8
Symbols(ISO)
 62
     7
100
AcDbMText
 10
-35.99999999999998
 20
7.999999999999971
 30
0.0
 40
1.49859994649887
 41
0.0
 71
     5
 72
     1
  1
\fArial|b0|i0;\H1.4986;±0,78
  7
Text__3.5mm
 73
     1
 44
1.0
  0
MTEXT
  5
21C
330
1E9
100
AcDbEntity
  8
Symbols(ISO)
 62
     7
100
AcDbMText
 10
-92.00000000000001
 20
7.999999999999971
 30
0.0
 40
1.49859994649887
 41
0.0
 71
     5
 72
     1
  1
\fArial|b0|i0;\H1.4986;±0,30
  7
Text__3.5mm
 73
     1
 44
1.0
  0
MTEXT
  5
21D
330
1E9
100
AcDbEntity
  8
Symbols(ISO)
 62
     7
100
AcDbMText
 10
-19.99999999999994
 20
7.999999999999971
 30
0.0
 40
1.49859994649887
 41
0.0
 71
     5
 72
     1
  1
\fArial|b0|i0;\H1.4986;±1,15
  7
Text__3.5mm
 73
     1
 44
1.0
  0
MTEXT
  5
21E
330
1E9
100
AcDbEntity
  8
Symbols(ISO)
 62
     7
100
AcDbMText
 10
-11.99999999999995
 20
7.999999999999971
 30
0.0
 40
1.49859994649887
 41
0.0
 71
     5
 72
     1
  1
\fArial|b0|i0;\H1.4986;±1,40
  7
Text__3.5mm
 73
     1
 44
1.0
  0
MTEXT
  5
21F
330
1E9
100
AcDbEntity
  8
Symbols(ISO)
 62
     7
100
AcDbMText
 10
-3.99999999999995
 20
7.999999999999971
 30
0.0
 40
1.49859994649887
 41
0.0
 71
     5
 72
     1
  1
\fArial|b0|i0;\H1.4986;±1,80
  7
Text__3.5mm
 73
     1
 44
1.0
  0
ENDBLK
  5
1EB
330
1E9
100
AcDbEntity
  8
0
100
AcDbBlockEnd
  0
BLOCK
  5
221
330
220
100
AcDbEntity
  8
0
100
AcDbBlockBegin
  2
DIN 17 673
 70
     0
 10
0.0
 20
0.0
 30
0.0
  3
DIN 17 673
  1

  0
LINE
  5
223
330
220
100
AcDbEntity
  8
Sketch Geometry(ISO)
100
AcDbLine
 10
-101.0
 20
41.50000000000002
 30
0.0
 11
0.0
 21
41.49999999999995
 31
0.0
  0
LINE
  5
224
330
220
100
AcDbEntity
  8
Sketch Geometry(ISO)
100
AcDbLine
 10
0.0
 20
41.49999999999995
 30
0.0
 11
0.0
 21
0.0
 31
0.0
  0
LINE
  5
225
330
220
100
AcDbEntity
  8
Sketch Geometry(ISO)
100
AcDbLine
 10
0.0
 20
0.0
 30
0.0
 11
-101.0
 21
0.0
 31
0.0
  0
LINE
  5
226
330
220
100
AcDbEntity
  8
Sketch Geometry(ISO)
100
AcDbLine
 10
-101.0
 20
0.0
 30
0.0
 11
-101.0
 21
41.50000000000002
 31
0.0
  0
LINE
  5
227
330
220
100
AcDbEntity
  8
Sketch Geometry(ISO)
370
    35
100
AcDbLine
 10
-101.0
 20
36.00000000000001
 30
0.0
 11
0.0
 21
36.00000000000005
 31
0.0
  0
LINE
  5
228
330
220
100
AcDbEntity
  8
Sketch Geometry(ISO)
370
    35
100
AcDbLine
 10
-87.0
 20
10.99999999999998
 30
0.0
 11
0.0
 21
11.00000000000005
 31
0.0
  0
LINE
  5
229
330
220
100
AcDbEntity
  8
Sketch Geometry(ISO)
370
    35
100
AcDbLine
 10
0.0
 20
5.500000000000007
 30
0.0
 11
-87.0
 21
5.500000000000007
 31
0.0
  0
LINE
  5
22A
330
220
100
AcDbEntity
  8
Sketch Geometry(ISO)
370
    35
100
AcDbLine
 10
-101.0
 20
16.49999999999998
 30
0.0
 11
0.0
 21
16.50000000000005
 31
0.0
  0
LINE
  5
22B
330
220
100
AcDbEntity
  8
Sketch Geometry(ISO)
100
AcDbLine
 10
-101.0
 20
21.99999999999999
 30
0.0
 11
0.0
 21
22.00000000000003
 31
0.0
  0
LINE
  5
22C
330
220
100
AcDbEntity
  8
Sketch Geometry(ISO)
370
    35
100
AcDbLine
 10
-87.0
 20
0.0
 30
0.0
 11
-87.0
 21
36.00000000000001
 31
0.0
  0
LINE
  5
22D
330
220
100
AcDbEntity
  8
Sketch Geometry(ISO)
370
    35
100
AcDbLine
 10
-13.99999999999998
 20
0.0
 30
0.0
 11
-13.99999999999998
 21
25.0
 31
0.0
  0
LINE
  5
22E
330
220
100
AcDbEntity
  8
Sketch Geometry(ISO)
370
    35
100
AcDbLine
 10
-13.99999999999998
 20
28.00000000000001
 30
0.0
 11
-13.99999999999998
 21
31.00000000000001
 31
0.0
  0
LINE
  5
22F
330
220
100
AcDbEntity
  8
Sketch Geometry(ISO)
370
    35
100
AcDbLine
 10
-20.63636363636363
 20
0.0
 30
0.0
 11
-20.63636363636363
 21
25.0
 31
0.0
  0
LINE
  5
230
330
220
100
AcDbEntity
  8
Sketch Geometry(ISO)
370
    35
100
AcDbLine
 10
-20.63636363636363
 20
28.00000000000001
 30
0.0
 11
-20.63636363636363
 21
31.00000000000001
 31
0.0
  0
LINE
  5
231
330
220
100
AcDbEntity
  8
Sketch Geometry(ISO)
370
    35
100
AcDbLine
 10
-27.27272727272727
 20
0.0
 30
0.0
 11
-27.27272727272727
 21
25.0
 31
0.0
  0
LINE
  5
232
330
220
100
AcDbEntity
  8
Sketch Geometry(ISO)
370
    35
100
AcDbLine
 10
-27.27272727272727
 20
28.00000000000001
 30
0.0
 11
-27.27272727272727
 21
31.00000000000001
 31
0.0
  0
LINE
  5
233
330
220
100
AcDbEntity
  8
Sketch Geometry(ISO)
370
    35
100
AcDbLine
 10
-33.90909090909091
 20
0.0
 30
0.0
 11
-33.90909090909091
 21
25.0
 31
0.0
  0
LINE
  5
234
330
220
100
AcDbEntity
  8
Sketch Geometry(ISO)
370
    35
100
AcDbLine
 10
-33.90909090909091
 20
28.00000000000001
 30
0.0
 11
-33.90909090909091
 21
31.00000000000001
 31
0.0
  0
LINE
  5
235
330
220
100
AcDbEntity
  8
Sketch Geometry(ISO)
370
    35
100
AcDbLine
 10
-40.54545454545454
 20
0.0
 30
0.0
 11
-40.54545454545454
 21
25.0
 31
0.0
  0
LINE
  5
236
330
220
100
AcDbEntity
  8
Sketch Geometry(ISO)
370
    35
100
AcDbLine
 10
-40.54545454545454
 20
28.00000000000001
 30
0.0
 11
-40.54545454545454
 21
31.00000000000001
 31
0.0
  0
LINE
  5
237
330
220
100
AcDbEntity
  8
Sketch Geometry(ISO)
370
    35
100
AcDbLine
 10
-47.18181818181818
 20
0.0
 30
0.0
 11
-47.18181818181818
 21
25.0
 31
0.0
  0
LINE
  5
238
330
220
100
AcDbEntity
  8
Sketch Geometry(ISO)
370
    35
100
AcDbLine
 10
-47.18181818181818
 20
28.00000000000001
 30
0.0
 11
-47.18181818181818
 21
31.00000000000001
 31
0.0
  0
LINE
  5
239
330
220
100
AcDbEntity
  8
Sketch Geometry(ISO)
370
    35
100
AcDbLine
 10
-53.81818181818182
 20
0.0
 30
0.0
 11
-53.81818181818182
 21
25.0
 31
0.0
  0
LINE
  5
23A
330
220
100
AcDbEntity
  8
Sketch Geometry(ISO)
370
    35
100
AcDbLine
 10
-53.81818181818182
 20
28.00000000000001
 30
0.0
 11
-53.81818181818182
 21
31.00000000000001
 31
0.0
  0
LINE
  5
23B
330
220
100
AcDbEntity
  8
Sketch Geometry(ISO)
370
    35
100
AcDbLine
 10
-60.45454545454546
 20
0.0
 30
0.0
 11
-60.45454545454546
 21
25.0
 31
0.0
  0
LINE
  5
23C
330
220
100
AcDbEntity
  8
Sketch Geometry(ISO)
370
    35
100
AcDbLine
 10
-60.45454545454546
 20
28.00000000000001
 30
0.0
 11
-60.45454545454546
 21
31.00000000000001
 31
0.0
  0
LINE
  5
23D
330
220
100
AcDbEntity
  8
Sketch Geometry(ISO)
370
    35
100
AcDbLine
 10
-67.09090909090907
 20
0.0
 30
0.0
 11
-67.09090909090907
 21
25.0
 31
0.0
  0
LINE
  5
23E
330
220
100
AcDbEntity
  8
Sketch Geometry(ISO)
370
    35
100
AcDbLine
 10
-67.09090909090907
 20
28.00000000000001
 30
0.0
 11
-67.09090909090907
 21
31.00000000000001
 31
0.0
  0
LINE
  5
23F
330
220
100
AcDbEntity
  8
Sketch Geometry(ISO)
370
    35
100
AcDbLine
 10
-73.72727272727272
 20
0.0
 30
0.0
 11
-73.72727272727272
 21
25.0
 31
0.0
  0
LINE
  5
240
330
220
100
AcDbEntity
  8
Sketch Geometry(ISO)
370
    35
100
AcDbLine
 10
-73.72727272727272
 20
28.00000000000001
 30
0.0
 11
-73.72727272727272
 21
31.00000000000001
 31
0.0
  0
LINE
  5
241
330
220
100
AcDbEntity
  8
Sketch Geometry(ISO)
370
    35
100
AcDbLine
 10
-80.36363636363635
 20
0.0
 30
0.0
 11
-80.36363636363635
 21
25.0
 31
0.0
  0
LINE
  5
242
330
220
100
AcDbEntity
  8
Sketch Geometry(ISO)
370
    35
100
AcDbLine
 10
-80.36363636363635
 20
28.00000000000001
 30
0.0
 11
-80.36363636363635
 21
31.00000000000001
 31
0.0
  0
LINE
  5
243
330
220
100
AcDbEntity
  8
Sketch Geometry(ISO)
370
    35
100
AcDbLine
 10
-13.99999999999998
 20
25.0
 30
0.0
 11
-13.99999999999998
 21
28.00000000000001
 31
0.0
  0
LINE
  5
244
330
220
100
AcDbEntity
  8
Sketch Geometry(ISO)
370
    35
100
AcDbLine
 10
-13.99999999999998
 20
31.00000000000001
 30
0.0
 11
-13.99999999999998
 21
33.99999999999999
 31
0.0
  0
MTEXT
  5
245
330
220
100
AcDbEntity
  8
Symbols(ISO)
 62
     7
100
AcDbMText
 10
-50.99999999999997
 20
39.00062674035627
 30
0.0
 40
1.49859994649887
 41
0.0
 71
     5
 72
     1
  1
\fArial|b0|i0;\H1.4986;Allgemeintoleranzen / DIN 17 673 Gruppe 1\PGeneral tolerances / DIN 17 673 group 1
  7
Text__3.5mm
 73
     2
 44
0.9442214369773864
  0
MTEXT
  5
246
330
220
100
AcDbEntity
  8
Symbols(ISO)
 62
     7
100
AcDbMText
 10
-49.49999999999999
 20
33.16701334429283
 30
0.0
 40
1.49859994649887
 41
0.0
 71
     5
 72
     1
  1
\fArial|b0|i0;\H1.4986;Nennmassbereich / Nominal size range\Püber / above
  7
Text__3.5mm
 73
     2
 44
0.9442214369773864
  0
MTEXT
  5
247
330
220
100
AcDbEntity
  8
Symbols(ISO)
 62
     7
100
AcDbMText
 10
-77.04545454545453
 20
2.84417654325562
 30
0.0
 40
1.49859994649887
 41
0.0
 71
     5
 72
     1
  1
\fArial|b0|i0;\H1.4986;+0,5\P-0,4
  7
Text__3.5mm
 73
     2
 44
0.9442214369773864
  0
MTEXT
  5
248
330
220
100
AcDbEntity
  8
Symbols(ISO)
 62
     7
100
AcDbMText
 10
-83.68181818181817
 20
3.326219521462903
 30
0.0
 40
2.000000029802322
 41
0.0
 71
     5
 72
     1
  1
\fArial|b0|i0;\H2.0000;-
  7
Text__3.5mm
 73
     1
 44
1.0
  0
MTEXT
  5
249
330
220
100
AcDbEntity
  8
Symbols(ISO)
 62
     7
100
AcDbMText
 10
-83.68181818181817
 20
8.82621952146291
 30
0.0
 40
2.000000029802322
 41
0.0
 71
     5
 72
     1
  1
\fArial|b0|i0;\H2.0000;-
  7
Text__3.5mm
 73
     1
 44
1.0
  0
MTEXT
  5
24A
330
220
100
AcDbEntity
  8
Symbols(ISO)
 62
     7
100
AcDbMText
 10
-70.40909090909089
 20
2.84417654325562
 30
0.0
 40
1.49859994649887
 41
0.0
 71
     5
 72
     1
  1
\fArial|b0|i0;\H1.4986;+0,6\P-0,4
  7
Text__3.5mm
 73
     2
 44
0.9442214369773864
  0
MTEXT
  5
24B
330
220
100
AcDbEntity
  8
Symbols(ISO)
 62
     7
100
AcDbMText
 10
-43.86363636363633
 20
8.344176543255628
 30
0.0
 40
1.49859994649887
 41
0.0
 71
     5
 72
     1
  1
\fArial|b0|i0;\H1.4986;+1,0\P-0,6
  7
Text__3.5mm
 73
     2
 44
0.9442214369773864
  0
MTEXT
  5
24C
330
220
100
AcDbEntity
  8
Symbols(ISO)
 62
     7
100
AcDbMText
 10
-37.22727272727269
 20
8.344176543255628
 30
0.0
 40
1.49859994649887
 41
0.0
 71
     5
 72
     1
  1
\fArial|b0|i0;\H1.4986;+1,1\P-0,7
  7
Text__3.5mm
 73
     2
 44
0.9442214369773864
  0
MTEXT
  5
24D
330
220
100
AcDbEntity
  8
Symbols(ISO)
 62
     7
100
AcDbMText
 10
-30.59090909090905
 20
8.344176543255628
 30
0.0
 40
1.49859994649887
 41
0.0
 71
     5
 72
     1
  1
\fArial|b0|i0;\H1.4986;+1,3\P-0,8
  7
Text__3.5mm
 73
     2
 44
0.9442214369773864
  0
MTEXT
  5
24E
330
220
100
AcDbEntity
  8
Symbols(ISO)
 62
     7
100
AcDbMText
 10
-17.31818181818177
 20
8.344176543255628
 30
0.0
 40
1.49859994649887
 41
0.0
 71
     5
 72
     1
  1
\fArial|b0|i0;\H1.4986;+1,6\P-1,1
  7
Text__3.5mm
 73
     2
 44
0.9442214369773864
  0
MTEXT
  5
24F
330
220
100
AcDbEntity
  8
Symbols(ISO)
 62
     7
100
AcDbMText
 10
-23.95454545454541
 20
8.344176543255628
 30
0.0
 40
1.49859994649887
 41
0.0
 71
     5
 72
     1
  1
\fArial|b0|i0;\H1.4986;+1,4\P-1,0
  7
Text__3.5mm
 73
     2
 44
0.9442214369773864
  0
MTEXT
  5
250
330
220
100
AcDbEntity
  8
Symbols(ISO)
 62
     7
100
AcDbMText
 10
-17.31818181818177
 20
2.84417654325562
 30
0.0
 40
1.49859994649887
 41
0.0
 71
     5
 72
     1
  1
\fArial|b0|i0;\H1.4986;+1,7\P-1,2
  7
Text__3.5mm
 73
     2
 44
0.9442214369773864
  0
MTEXT
  5
251
330
220
100
AcDbEntity
  8
Symbols(ISO)
 62
     7
100
AcDbMText
 10
-23.95454545454541
 20
2.84417654325562
 30
0.0
 40
1.49859994649887
 41
0.0
 71
     5
 72
     1
  1
\fArial|b0|i0;\H1.4986;+1,6\P-1,0
  7
Text__3.5mm
 73
     2
 44
0.9442214369773864
  0
MTEXT
  5
252
330
220
100
AcDbEntity
  8
Symbols(ISO)
 62
     7
100
AcDbMText
 10
-30.59090909090905
 20
2.84417654325562
 30
0.0
 40
1.49859994649887
 41
0.0
 71
     5
 72
     1
  1
\fArial|b0|i0;\H1.4986;+1,4\P-0,9
  7
Text__3.5mm
 73
     2
 44
0.9442214369773864
  0
MTEXT
  5
253
330
220
100
AcDbEntity
  8
Symbols(ISO)
 62
     7
100
AcDbMText
 10
-37.22727272727269
 20
2.84417654325562
 30
0.0
 40
1.49859994649887
 41
0.0
 71
     5
 72
     1
  1
\fArial|b0|i0;\H1.4986;+1,2\P-0,8
  7
Text__3.5mm
 73
     2
 44
0.9442214369773864
  0
MTEXT
  5
254
330
220
100
AcDbEntity
  8
Symbols(ISO)
 62
     7
100
AcDbMText
 10
-43.86363636363633
 20
2.84417654325562
 30
0.0
 40
1.49859994649887
 41
0.0
 71
     5
 72
     1
  1
\fArial|b0|i0;\H1.4986;+1,1\P-0,7
  7
Text__3.5mm
 73
     2
 44
0.9442214369773864
  0
MTEXT
  5
255
330
220
100
AcDbEntity
  8
Symbols(ISO)
 62
     7
100
AcDbMText
 10
-50.49999999999997
 20
2.844176543255585
 30
0.0
 40
1.49859994649887
 41
0.0
 71
     5
 72
     1
  1
\fArial|b0|i0;\H1.4986;+1,0\P-0,6
  7
Text__3.5mm
 73
     2
 44
0.9442214369773864
  0
MTEXT
  5
256
330
220
100
AcDbEntity
  8
Symbols(ISO)
 62
     7
100
AcDbMText
 10
-57.13636363636361
 20
2.84417654325562
 30
0.0
 40
1.49859994649887
 41
0.0
 71
     5
 72
     1
  1
\fArial|b0|i0;\H1.4986;+0,8\P-0,6
  7
Text__3.5mm
 73
     2
 44
0.9442214369773864
  0
MTEXT
  5
257
330
220
100
AcDbEntity
  8
Symbols(ISO)
 62
     7
100
AcDbMText
 10
-63.77272727272725
 20
2.84417654325562
 30
0.0
 40
1.49859994649887
 41
0.0
 71
     5
 72
     1
  1
\fArial|b0|i0;\H1.4986;+0,7\P-0,5
  7
Text__3.5mm
 73
     2
 44
0.9442214369773864
  0
MTEXT
  5
258
330
220
100
AcDbEntity
  8
Symbols(ISO)
 62
     7
100
AcDbMText
 10
-43.86363636363633
 20
13.84417654325563
 30
0.0
 40
1.49859994649887
 41
0.0
 71
     5
 72
     1
  1
\fArial|b0|i0;\H1.4986;+0,8\P-0,6
  7
Text__3.5mm
 73
     2
 44
0.9442214369773864
  0
MTEXT
  5
259
330
220
100
AcDbEntity
  8
Symbols(ISO)
 62
     7
100
AcDbMText
 10
-17.31818181818177
 20
13.84417654325563
 30
0.0
 40
1.49859994649887
 41
0.0
 71
     5
 72
     1
  1
\fArial|b0|i0;\H1.4986;+1,6\P-1,0
  7
Text__3.5mm
 73
     2
 44
0.9442214369773864
  0
MTEXT
  5
25A
330
220
100
AcDbEntity
  8
Symbols(ISO)
 62
     7
100
AcDbMText
 10
-50.49999999999997
 20
13.84417654325563
 30
0.0
 40
1.49859994649887
 41
0.0
 71
     5
 72
     1
  1
\fArial|b0|i0;\H1.4986;+0,7\P-0,5
  7
Text__3.5mm
 73
     2
 44
0.9442214369773864
  0
MTEXT
  5
25B
330
220
100
AcDbEntity
  8
Symbols(ISO)
 62
     7
100
AcDbMText
 10
-57.13636363636361
 20
13.84417654325563
 30
0.0
 40
1.49859994649887
 41
0.0
 71
     5
 72
     1
  1
\fArial|b0|i0;\H1.4986;+0,6\P-0,4
  7
Text__3.5mm
 73
     2
 44
0.9442214369773864
  0
MTEXT
  5
25C
330
220
100
AcDbEntity
  8
Symbols(ISO)
 62
     7
100
AcDbMText
 10
-63.77272727272725
 20
13.84417654325563
 30
0.0
 40
1.49859994649887
 41
0.0
 71
     5
 72
     1
  1
\fArial|b0|i0;\H1.4986;+0,5\P-0,4
  7
Text__3.5mm
 73
     2
 44
0.9442214369773864
  0
MTEXT
  5
25D
330
220
100
AcDbEntity
  8
Symbols(ISO)
 62
     7
100
AcDbMText
 10
-70.40909090909089
 20
13.84417654325563
 30
0.0
 40
1.49859994649887
 41
0.0
 71
     5
 72
     1
  1
\fArial|b0|i0;\H1.4986;+0,5\P-0,3
  7
Text__3.5mm
 73
     2
 44
0.9442214369773864
  0
MTEXT
  5
25E
330
220
100
AcDbEntity
  8
Symbols(ISO)
 62
     7
100
AcDbMText
 10
-83.68181818181817
 20
13.84417654325563
 30
0.0
 40
1.49859994649887
 41
0.0
 71
     5
 72
     1
  1
\fArial|b0|i0;\H1.4986;+0,3\P-0,1
  7
Text__3.5mm
 73
     2
 44
0.9442214369773864
  0
MTEXT
  5
25F
330
220
100
AcDbEntity
  8
Symbols(ISO)
 62
     7
100
AcDbMText
 10
-77.04545454545453
 20
13.84417654325563
 30
0.0
 40
1.49859994649887
 41
0.0
 71
     5
 72
     1
  1
\fArial|b0|i0;\H1.4986;+0,4\P-0,2
  7
Text__3.5mm
 73
     2
 44
0.9442214369773864
  0
MTEXT
  5
260
330
220
100
AcDbEntity
  8
Symbols(ISO)
 62
     7
100
AcDbMText
 10
-50.49999999999997
 20
8.344176543255628
 30
0.0
 40
1.49859994649887
 41
0.0
 71
     5
 72
     1
  1
\fArial|b0|i0;\H1.4986;+0,8\P-0,6
  7
Text__3.5mm
 73
     2
 44
0.9442214369773864
  0
MTEXT
  5
261
330
220
100
AcDbEntity
  8
Symbols(ISO)
 62
     7
100
AcDbMText
 10
-57.13636363636361
 20
8.344176543255628
 30
0.0
 40
1.49859994649887
 41
0.0
 71
     5
 72
     1
  1
\fArial|b0|i0;\H1.4986;+0,7\P-0,5
  7
Text__3.5mm
 73
     2
 44
0.9442214369773864
  0
MTEXT
  5
262
330
220
100
AcDbEntity
  8
Symbols(ISO)
 62
     7
100
AcDbMText
 10
-63.77272727272725
 20
8.344176543255628
 30
0.0
 40
1.49859994649887
 41
0.0
 71
     5
 72
     1
  1
\fArial|b0|i0;\H1.4986;+0,7\P-0,4
  7
Text__3.5mm
 73
     2
 44
0.9442214369773864
  0
MTEXT
  5
263
330
220
100
AcDbEntity
  8
Symbols(ISO)
 62
     7
100
AcDbMText
 10
-70.40909090909089
 20
8.344176543255628
 30
0.0
 40
1.49859994649887
 41
0.0
 71
     5
 72
     1
  1
\fArial|b0|i0;\H1.4986;+0,5\P-0,4
  7
Text__3.5mm
 73
     2
 44
0.9442214369773864
  0
MTEXT
  5
264
330
220
100
AcDbEntity
  8
Symbols(ISO)
 62
     7
100
AcDbMText
 10
-77.04545454545456
 20
8.344176543255628
 30
0.0
 40
1.49859994649887
 41
0.0
 71
     5
 72
     1
  1
\fArial|b0|i0;\H1.4986;+0,5\P-0,3
  7
Text__3.5mm
 73
     2
 44
0.9442214369773864
  0
MTEXT
  5
265
330
220
100
AcDbEntity
  8
Symbols(ISO)
 62
     7
100
AcDbMText
 10
-23.95454545454541
 20
13.84417654325563
 30
0.0
 40
1.49859994649887
 41
0.0
 71
     5
 72
     1
  1
\fArial|b0|i0;\H1.4986;+1,3\P-0,9
  7
Text__3.5mm
 73
     2
 44
0.9442214369773864
  0
MTEXT
  5
266
330
220
100
AcDbEntity
  8
Symbols(ISO)
 62
     7
100
AcDbMText
 10
-30.59090909090905
 20
13.84417654325563
 30
0.0
 40
1.49859994649887
 41
0.0
 71
     5
 72
     1
  1
\fArial|b0|i0;\H1.4986;+1,1\P-0,8
  7
Text__3.5mm
 73
     2
 44
0.9442214369773864
  0
MTEXT
  5
267
330
220
100
AcDbEntity
  8
Symbols(ISO)
 62
     7
100
AcDbMText
 10
-37.22727272727269
 20
13.84417654325563
 30
0.0
 40
1.49859994649887
 41
0.0
 71
     5
 72
     1
  1
\fArial|b0|i0;\H1.4986;+1,0\P-0,6
  7
Text__3.5mm
 73
     2
 44
0.9442214369773864
  0
MTEXT
  5
268
330
220
100
AcDbEntity
  8
Symbols(ISO)
 62
     7
100
AcDbMText
 10
-30.59090909090905
 20
19.25
 30
0.0
 40
1.49859994649887
 41
0.0
 71
     5
 72
     1
  1
\fArial|b0|i0;\H1.4986;±0,8
  7
Text__3.5mm
 73
     1
 44
1.0
  0
MTEXT
  5
269
330
220
100
AcDbEntity
  8
Symbols(ISO)
 62
     7
100
AcDbMText
 10
-37.22727272727269
 20
19.25
 30
0.0
 40
1.49859994649887
 41
0.0
 71
     5
 72
     1
  1
\fArial|b0|i0;\H1.4986;±0,65
  7
Text__3.5mm
 73
     1
 44
1.0
  0
MTEXT
  5
26A
330
220
100
AcDbEntity
  8
Symbols(ISO)
 62
     7
100
AcDbMText
 10
-43.86363636363633
 20
19.25
 30
0.0
 40
1.49859994649887
 41
0.0
 71
     5
 72
     1
  1
\fArial|b0|i0;\H1.4986;±0,5
  7
Text__3.5mm
 73
     1
 44
1.0
  0
MTEXT
  5
26B
330
220
100
AcDbEntity
  8
Symbols(ISO)
 62
     7
100
AcDbMText
 10
-50.49999999999997
 20
19.25
 30
0.0
 40
1.49859994649887
 41
0.0
 71
     5
 72
     1
  1
\fArial|b0|i0;\H1.4986;±0,4
  7
Text__3.5mm
 73
     1
 44
1.0
  0
MTEXT
  5
26C
330
220
100
AcDbEntity
  8
Symbols(ISO)
 62
     7
100
AcDbMText
 10
-57.13636363636361
 20
19.25
 30
0.0
 40
1.49859994649887
 41
0.0
 71
     5
 72
     1
  1
\fArial|b0|i0;\H1.4986;±0,3
  7
Text__3.5mm
 73
     1
 44
1.0
  0
MTEXT
  5
26D
330
220
100
AcDbEntity
  8
Symbols(ISO)
 62
     7
100
AcDbMText
 10
-63.77272727272725
 20
19.25
 30
0.0
 40
1.49859994649887
 41
0.0
 71
     5
 72
     1
  1
\fArial|b0|i0;\H1.4986;±0,25
  7
Text__3.5mm
 73
     1
 44
1.0
  0
MTEXT
  5
26E
330
220
100
AcDbEntity
  8
Symbols(ISO)
 62
     7
100
AcDbMText
 10
-70.40909090909089
 20
19.25
 30
0.0
 40
1.49859994649887
 41
0.0
 71
     5
 72
     1
  1
\fArial|b0|i0;\H1.4986;±0,2
  7
Text__3.5mm
 73
     1
 44
1.0
  0
MTEXT
  5
26F
330
220
100
AcDbEntity
  8
Symbols(ISO)
 62
     7
100
AcDbMText
 10
-77.04545454545453
 20
19.25
 30
0.0
 40
1.49859994649887
 41
0.0
 71
     5
 72
     1
  1
\fArial|b0|i0;\H1.4986;±0,15
  7
Text__3.5mm
 73
     1
 44
1.0
  0
MTEXT
  5
270
330
220
100
AcDbEntity
  8
Symbols(ISO)
 62
     7
100
AcDbMText
 10
-17.31818181818177
 20
19.25
 30
0.0
 40
1.49859994649887
 41
0.0
 71
     5
 72
     1
  1
\fArial|b0|i0;\H1.4986;±1,0
  7
Text__3.5mm
 73
     1
 44
1.0
  0
MTEXT
  5
271
330
220
100
AcDbEntity
  8
Symbols(ISO)
 62
     7
100
AcDbMText
 10
-23.95454545454541
 20
19.25
 30
0.0
 40
1.49859994649887
 41
0.0
 71
     5
 72
     1
  1
\fArial|b0|i0;\H1.4986;±0,9
  7
Text__3.5mm
 73
     1
 44
1.0
  0
MTEXT
  5
272
330
220
100
AcDbEntity
  8
Symbols(ISO)
 62
     7
100
AcDbMText
 10
-83.68181818181817
 20
23.50000000000001
 30
0.0
 40
1.49859994649887
 41
0.0
 71
     5
 72
     1
  1
\fArial|b0|i0;\H1.4986;3
  7
Text__3.5mm
 73
     1
 44
1.0
  0
MTEXT
  5
273
330
220
100
AcDbEntity
  8
Symbols(ISO)
 62
     7
100
AcDbMText
 10
-77.04545454545453
 20
29.49999999999999
 30
0.0
 40
1.49859994649887
 41
0.0
 71
     5
 72
     1
  1
\fArial|b0|i0;\H1.4986;3
  7
Text__3.5mm
 73
     1
 44
1.0
  0
MTEXT
  5
274
330
220
100
AcDbEntity
  8
Symbols(ISO)
 62
     7
100
AcDbMText
 10
-77.04545454545453
 20
23.50000000000001
 30
0.0
 40
1.49859994649887
 41
0.0
 71
     5
 72
     1
  1
\fArial|b0|i0;\H1.4986;6
  7
Text__3.5mm
 73
     1
 44
1.0
  0
MTEXT
  5
275
330
220
100
AcDbEntity
  8
Symbols(ISO)
 62
     7
100
AcDbMText
 10
-70.40909090909089
 20
23.50000000000001
 30
0.0
 40
1.49859994649887
 41
0.0
 71
     5
 72
     1
  1
\fArial|b0|i0;\H1.4986;10
  7
Text__3.5mm
 73
     1
 44
1.0
  0
MTEXT
  5
276
330
220
100
AcDbEntity
  8
Symbols(ISO)
 62
     7
100
AcDbMText
 10
-63.77272727272725
 20
23.50000000000001
 30
0.0
 40
1.49859994649887
 41
0.0
 71
     5
 72
     1
  1
\fArial|b0|i0;\H1.4986;18
  7
Text__3.5mm
 73
     1
 44
1.0
  0
MTEXT
  5
277
330
220
100
AcDbEntity
  8
Symbols(ISO)
 62
     7
100
AcDbMText
 10
-57.13636363636361
 20
23.50000000000001
 30
0.0
 40
1.49859994649887
 41
0.0
 71
     5
 72
     1
  1
\fArial|b0|i0;\H1.4986;30
  7
Text__3.5mm
 73
     1
 44
1.0
  0
MTEXT
  5
278
330
220
100
AcDbEntity
  8
Symbols(ISO)
 62
     7
100
AcDbMText
 10
-50.49999999999997
 20
23.50000000000001
 30
0.0
 40
1.49859994649887
 41
0.0
 71
     5
 72
     1
  1
\fArial|b0|i0;\H1.4986;50
  7
Text__3.5mm
 73
     1
 44
1.0
  0
MTEXT
  5
279
330
220
100
AcDbEntity
  8
Symbols(ISO)
 62
     7
100
AcDbMText
 10
-43.86363636363633
 20
23.50000000000001
 30
0.0
 40
1.49859994649887
 41
0.0
 71
     5
 72
     1
  1
\fArial|b0|i0;\H1.4986;80
  7
Text__3.5mm
 73
     1
 44
1.0
  0
MTEXT
  5
27A
330
220
100
AcDbEntity
  8
Symbols(ISO)
 62
     7
100
AcDbMText
 10
-37.22727272727269
 20
23.50000000000001
 30
0.0
 40
1.49859994649887
 41
0.0
 71
     5
 72
     1
  1
\fArial|b0|i0;\H1.4986;120
  7
Text__3.5mm
 73
     1
 44
1.0
  0
MTEXT
  5
27B
330
220
100
AcDbEntity
  8
Symbols(ISO)
 62
     7
100
AcDbMText
 10
-30.59090909090905
 20
23.50000000000001
 30
0.0
 40
1.49859994649887
 41
0.0
 71
     5
 72
     1
  1
\fArial|b0|i0;\H1.4986;180
  7
Text__3.5mm
 73
     1
 44
1.0
  0
MTEXT
  5
27C
330
220
100
AcDbEntity
  8
Symbols(ISO)
 62
     7
100
AcDbMText
 10
-23.95454545454541
 20
23.50000000000001
 30
0.0
 40
1.49859994649887
 41
0.0
 71
     5
 72
     1
  1
\fArial|b0|i0;\H1.4986;250
  7
Text__3.5mm
 73
     1
 44
1.0
  0
MTEXT
  5
27D
330
220
100
AcDbEntity
  8
Symbols(ISO)
 62
     7
100
AcDbMText
 10
-17.31818181818177
 20
23.50000000000001
 30
0.0
 40
1.49859994649887
 41
0.0
 71
     5
 72
     1
  1
\fArial|b0|i0;\H1.4986;315
  7
Text__3.5mm
 73
     1
 44
1.0
  0
MTEXT
  5
27E
330
220
100
AcDbEntity
  8
Symbols(ISO)
 62
     7
100
AcDbMText
 10
-17.31818181818177
 20
29.49999999999999
 30
0.0
 40
1.49859994649887
 41
0.0
 71
     5
 72
     1
  1
\fArial|b0|i0;\H1.4986;250
  7
Text__3.5mm
 73
     1
 44
1.0
  0
MTEXT
  5
27F
330
220
100
AcDbEntity
  8
Symbols(ISO)
 62
     7
100
AcDbMText
 10
-23.95454545454541
 20
29.49999999999999
 30
0.0
 40
1.49859994649887
 41
0.0
 71
     5
 72
     1
  1
\fArial|b0|i0;\H1.4986;180
  7
Text__3.5mm
 73
     1
 44
1.0
  0
MTEXT
  5
280
330
220
100
AcDbEntity
  8
Symbols(ISO)
 62
     7
100
AcDbMText
 10
-30.59090909090905
 20
29.49999999999999
 30
0.0
 40
1.49859994649887
 41
0.0
 71
     5
 72
     1
  1
\fArial|b0|i0;\H1.4986;120
  7
Text__3.5mm
 73
     1
 44
1.0
  0
MTEXT
  5
281
330
220
100
AcDbEntity
  8
Symbols(ISO)
 62
     7
100
AcDbMText
 10
-37.22727272727269
 20
29.49999999999999
 30
0.0
 40
1.49859994649887
 41
0.0
 71
     5
 72
     1
  1
\fArial|b0|i0;\H1.4986;80
  7
Text__3.5mm
 73
     1
 44
1.0
  0
MTEXT
  5
282
330
220
100
AcDbEntity
  8
Symbols(ISO)
 62
     7
100
AcDbMText
 10
-43.86363636363633
 20
29.49999999999999
 30
0.0
 40
1.49859994649887
 41
0.0
 71
     5
 72
     1
  1
\fArial|b0|i0;\H1.4986;50
  7
Text__3.5mm
 73
     1
 44
1.0
  0
MTEXT
  5
283
330
220
100
AcDbEntity
  8
Symbols(ISO)
 62
     7
100
AcDbMText
 10
-50.49999999999997
 20
29.49999999999999
 30
0.0
 40
1.49859994649887
 41
0.0
 71
     5
 72
     1
  1
\fArial|b0|i0;\H1.4986;30
  7
Text__3.5mm
 73
     1
 44
1.0
  0
MTEXT
  5
284
330
220
100
AcDbEntity
  8
Symbols(ISO)
 62
     7
100
AcDbMText
 10
-57.13636363636361
 20
29.49999999999999
 30
0.0
 40
1.49859994649887
 41
0.0
 71
     5
 72
     1
  1
\fArial|b0|i0;\H1.4986;18
  7
Text__3.5mm
 73
     1
 44
1.0
  0
MTEXT
  5
285
330
220
100
AcDbEntity
  8
Symbols(ISO)
 62
     7
100
AcDbMText
 10
-63.77272727272725
 20
29.49999999999999
 30
0.0
 40
1.49859994649887
 41
0.0
 71
     5
 72
     1
  1
\fArial|b0|i0;\H1.4986;10
  7
Text__3.5mm
 73
     1
 44
1.0
  0
MTEXT
  5
286
330
220
100
AcDbEntity
  8
Symbols(ISO)
 62
     7
100
AcDbMText
 10
-70.40909090909089
 20
29.49999999999999
 30
0.0
 40
1.49859994649887
 41
0.0
 71
     5
 72
     1
  1
\fArial|b0|i0;\H1.4986;6
  7
Text__3.5mm
 73
     1
 44
1.0
  0
MTEXT
  5
287
330
220
100
AcDbEntity
  8
Symbols(ISO)
 62
     7
100
AcDbMText
 10
-83.68181818181817
 20
19.25
 30
0.0
 40
1.49859994649887
 41
0.0
 71
     5
 72
     1
  1
\fArial|b0|i0;\H1.4986;±0,1
  7
Text__3.5mm
 73
     1
 44
1.0
  0
MTEXT
  5
288
330
220
100
AcDbEntity
  8
Symbols(ISO)
 62
     7
100
AcDbMText
 10
-50.49999999999997
 20
26.49999999999999
 30
0.0
 40
1.49859994649887
 41
0.0
 71
     5
 72
     1
  1
\fArial|b0|i0;\H1.4986;bis / up to
  7
Text__3.5mm
 73
     1
 44
1.0
  0
MTEXT
  5
289
330
220
100
AcDbEntity
  8
Symbols(ISO)
 62
     7
100
AcDbMText
 10
-93.99999999999998
 20
8.028244014208496
 30
0.0
 40
1.49859994649887
 41
9.526161551475524
 71
     5
 72
     1
  1
\fArial|b0|i0;\H1.4986;nicht formge- bunden non-mould- related
  7
Text__3.5mm
 73
     2
 44
0.9442214369773864
  0
MTEXT
  5
28A
330
220
100
AcDbEntity
  8
Symbols(ISO)
 62
     7
100
AcDbMText
 10
-94.00000000000003
 20
19.01543445450563
 30
0.0
 40
1.500000059604644
 41
0.0
 71
     5
 72
     1
  1
\fArial|b1|i0;\H1.5000;formgebunden\Pmould-related
  7
Text__3.5mm
 73
     2
 44
0.9442214369773864
  0
MTEXT
  5
28B
330
220
100
AcDbEntity
  8
Symbols(ISO)
 62
     7
100
AcDbMText
 10
-94.00000000000003
 20
30.73575165619452
 30
0.0
 40
1.49859994649887
 41
0.0
 71
     5
 72
     1
  1
\fArial|b0|i0;\H1.4986;Formab-\Phängigkeit\PMould\Pdependence
  7
Text__3.5mm
 73
     2
 44
0.9442214369773864
  0
MTEXT
  5
28C
330
220
100
AcDbEntity
  8
Symbols(ISO)
 62
     7
100
AcDbMText
 10
-7.000000000000028
 20
28.77824401420852
 30
0.0
 40
1.49859994649887
 41
0.0
 71
     5
 72
     1
  1
\fArial|b0|i0;\H1.4986;A\Pcm²
  7
Text__3.5mm
 73
     2
 44
0.9442214369773864
  0
MTEXT
  5
28D
330
220
100
AcDbEntity
  8
Symbols(ISO)
 62
     7
100
AcDbMText
 10
-7.000000000000028
 20
12.83333333333338
 30
0.0
 40
1.500000059604644
 41
0.0
 71
     5
 72
     1
  1
\fArial|b1|i0;\H1.5000;bis/up to     25
  7
Text__3.5mm
 73
     1
 44
1.0
  0
MTEXT
  5
28E
330
220
100
AcDbEntity
  8
Symbols(ISO)
 62
     7
100
AcDbMText
 10
-12.99999999999997
 20
15.07253559182089
 30
0.0
 40
1.500000059604644
 41
0.0
 71
     4
 72
     1
  1
\fArial|b1|i0;\H1.5000;-
  7
Text__3.5mm
 73
     1
 44
1.0
  0
MTEXT
  5
28F
330
220
100
AcDbEntity
  8
Symbols(ISO)
 62
     7
100
AcDbMText
 10
-7.000000000000028
 20
8.472942096491635
 30
0.0
 40
1.500000059604644
 41
0.0
 71
     5
 72
     1
  1
\fArial|b1|i0;\H1.5000;über/above 25\Pbis/up to     50
  7
Text__3.5mm
 73
     2
 44
0.9442214369773864
  0
MTEXT
  5
290
330
220
100
AcDbEntity
  8
Symbols(ISO)
 62
     7
100
AcDbMText
 10
-7.000000000000028
 20
2.972942096491628
 30
0.0
 40
1.500000059604644
 41
0.0
 71
     5
 72
     1
  1
\fArial|b1|i0;\H1.5000;über/above 50\Pbis/up to   100
  7
Text__3.5mm
 73
     2
 44
0.9442214369773864
  0
ENDBLK
  5
222
330
220
100
AcDbEntity
  8
0
100
AcDbBlockEnd
  0
BLOCK
  5
292
330
291
100
AcDbEntity
  8
0
100
AcDbBlockBegin
  2
DIN ISO 2768-mLE
 70
     0
 10
0.0
 20
0.0
 30
0.0
  3
DIN ISO 2768-mLE
  1

  0
LINE
  5
294
330
291
100
AcDbEntity
  8
Sketch Geometry(ISO)
370
    70
100
AcDbLine
 10
0.0
 20
25.19999999999998
 30
0.0
 11
0.0
 21
0.0
 31
0.0
  0
LINE
  5
295
330
291
100
AcDbEntity
  8
Sketch Geometry(ISO)
370
    70
100
AcDbLine
 10
0.0
 20
0.0
 30
0.0
 11
-63.0
 21
0.0
 31
0.0
  0
LINE
  5
296
330
291
100
AcDbEntity
  8
Sketch Geometry(ISO)
370
    70
100
AcDbLine
 10
-63.0
 20
0.0
 30
0.0
 11
-63.00000000000004
 21
25.19999999999991
 31
0.0
  0
LINE
  5
297
330
291
100
AcDbEntity
  8
Sketch Geometry(ISO)
370
    70
100
AcDbLine
 10
-63.00000000000004
 20
25.19999999999991
 30
0.0
 11
0.0
 21
25.19999999999998
 31
0.0
  0
LINE
  5
298
330
291
100
AcDbEntity
  8
Sketch Geometry(ISO)
370
    35
100
AcDbLine
 10
0.0
 20
16.20000000000001
 30
0.0
 11
-63.00000000000003
 21
16.19999999999988
 31
0.0
  0
LINE
  5
299
330
291
100
AcDbEntity
  8
Sketch Geometry(ISO)
370
    35
100
AcDbLine
 10
-63.00000000000003
 20
3.599999999999905
 30
0.0
 11
0.0
 21
3.600000000000003
 31
0.0
  0
LINE
  5
29A
330
291
100
AcDbEntity
  8
Sketch Geometry(ISO)
370
    35
100
AcDbLine
 10
-54.0
 20
0.0
 30
0.0
 11
-54.00000000000004
 21
16.19999999999992
 31
0.0
  0
LINE
  5
29B
330
291
100
AcDbEntity
  8
Sketch Geometry(ISO)
370
    35
100
AcDbLine
 10
-45.00000000000003
 20
16.19999999999992
 30
0.0
 11
-45.0
 21
0.0
 31
0.0
  0
LINE
  5
29C
330
291
100
AcDbEntity
  8
Sketch Geometry(ISO)
370
    35
100
AcDbLine
 10
-36.00000000000001
 20
0.0
 30
0.0
 11
-36.00000000000003
 21
16.19999999999994
 31
0.0
  0
LINE
  5
29D
330
291
100
AcDbEntity
  8
Sketch Geometry(ISO)
370
    35
100
AcDbLine
 10
-27.00000000000005
 20
16.19999999999995
 30
0.0
 11
-27.00000000000001
 21
0.0
 31
0.0
  0
LINE
  5
29E
330
291
100
AcDbEntity
  8
Sketch Geometry(ISO)
370
    35
100
AcDbLine
 10
-18.0
 20
0.0
 30
0.0
 11
-18.00000000000004
 21
16.19999999999997
 31
0.0
  0
LINE
  5
29F
330
291
100
AcDbEntity
  8
Sketch Geometry(ISO)
370
    35
100
AcDbLine
 10
-9.000000000000021
 20
0.0
 30
0.0
 11
-9.000000000000056
 21
16.19999999999999
 31
0.0
  0
MTEXT
  5
2A0
330
291
100
AcDbEntity
  8
Symbols(ISO)
 62
     7
100
AcDbMText
 10
-40.50000000000003
 20
1.799999999999988
 30
0.0
 40
1.49859994649887
 41
0.0
 71
     5
 72
     1
  1
\fArial|b0|i0;\H1.4986;±0,2
  7
Text__3.5mm
 73
     1
 44
1.0
  0
MTEXT
  5
2A1
330
291
100
AcDbEntity
  8
Symbols(ISO)
 62
     7
100
AcDbMText
 10
-49.50000000000002
 20
1.799999999999988
 30
0.0
 40
1.49859994649887
 41
0.0
 71
     5
 72
     1
  1
\fArial|b0|i0;\H1.4986;±0,1
  7
Text__3.5mm
 73
     1
 44
1.0
  0
MTEXT
  5
2A2
330
291
100
AcDbEntity
  8
Symbols(ISO)
 62
     7
100
AcDbMText
 10
-22.50000000000003
 20
1.799999999999988
 30
0.0
 40
1.49859994649887
 41
0.0
 71
     5
 72
     1
  1
\fArial|b0|i0;\H1.4986;±0,5
  7
Text__3.5mm
 73
     1
 44
1.0
  0
MTEXT
  5
2A3
330
291
100
AcDbEntity
  8
Symbols(ISO)
 62
     7
100
AcDbMText
 10
-31.50000000000004
 20
1.799999999999988
 30
0.0
 40
1.49859994649887
 41
0.0
 71
     5
 72
     1
  1
\fArial|b0|i0;\H1.4986;±0,3
  7
Text__3.5mm
 73
     1
 44
1.0
  0
MTEXT
  5
2A4
330
291
100
AcDbEntity
  8
Symbols(ISO)
 62
     7
100
AcDbMText
 10
-13.50000000000005
 20
1.799999999999988
 30
0.0
 40
1.49859994649887
 41
0.0
 71
     5
 72
     1
  1
\fArial|b0|i0;\H1.4986;±0,8
  7
Text__3.5mm
 73
     1
 44
1.0
  0
MTEXT
  5
2A5
330
291
100
AcDbEntity
  8
Symbols(ISO)
 62
     7
100
AcDbMText
 10
-4.500000000000063
 20
1.799999999999988
 30
0.0
 40
1.49859994649887
 41
0.0
 71
     5
 72
     1
  1
\fArial|b0|i0;\H1.4986;±1,2
  7
Text__3.5mm
 73
     1
 44
1.0
  0
MTEXT
  5
2A6
330
291
100
AcDbEntity
  8
Symbols(ISO)
 62
     7
100
AcDbMText
 10
-49.50000000000002
 20
9.873756189768467
 30
0.0
 40
1.49859994649887
 41
0.0
 71
     5
 72
     1
  1
\fArial|b0|i0;\H1.4986;von\P \P0.5\Pbis/up to\P6
  7
Text__3.5mm
 73
     2
 44
0.9442214369773864
  0
MTEXT
  5
2A7
330
291
100
AcDbEntity
  8
Symbols(ISO)
 62
     7
100
AcDbMText
 10
-22.50000000000003
 20
9.679577854399852
 30
0.0
 40
1.49859994649887
 41
0.0
 71
     5
 72
     1
  1
\fArial|b0|i0;\H1.4986;über\Pabove\P120\Pbis/up to\P400
  7
Text__3.5mm
 73
     2
 44
0.9442214369773864
  0
MTEXT
  5
2A8
330
291
100
AcDbEntity
  8
Symbols(ISO)
 62
     7
100
AcDbMText
 10
-40.50000000000003
 20
9.679577854399834
 30
0.0
 40
1.49859994649887
 41
0.0
 71
     5
 72
     1
  1
\fArial|b0|i0;\H1.4986;über\Pabove\P6\Pbis/up to\P30
  7
Text__3.5mm
 73
     2
 44
0.9442214369773864
  0
MTEXT
  5
2A9
330
291
100
AcDbEntity
  8
Symbols(ISO)
 62
     7
100
AcDbMText
 10
-31.50000000000004
 20
9.679577854399834
 30
0.0
 40
1.49859994649887
 41
0.0
 71
     5
 72
     1
  1
\fArial|b0|i0;\H1.4986;über\Pabove\P30\Pbis/up to\P120
  7
Text__3.5mm
 73
     2
 44
0.9442214369773864
  0
MTEXT
  5
2AA
330
291
100
AcDbEntity
  8
Symbols(ISO)
 62
     7
100
AcDbMText
 10
-13.50000000000005
 20
9.67957785439987
 30
0.0
 40
1.49859994649887
 41
0.0
 71
     5
 72
     1
  1
\fArial|b0|i0;\H1.4986;über\Pabove\P400\Pbis/up to\P1000
  7
Text__3.5mm
 73
     2
 44
0.9442214369773864
  0
MTEXT
  5
2AB
330
291
100
AcDbEntity
  8
Symbols(ISO)
 62
     7
100
AcDbMText
 10
-4.500000000000063
 20
9.679577854399887
 30
0.0
 40
1.49859994649887
 41
0.0
 71
     5
 72
     1
  1
\fArial|b0|i0;\H1.4986;über\Pabove\P1000\Pbis/up to\P2000
  7
Text__3.5mm
 73
     2
 44
0.9442214369773864
  0
MTEXT
  5
2AC
330
291
100
AcDbEntity
  8
Symbols(ISO)
 62
     7
100
AcDbMText
 10
-31.50000000000004
 20
20.95062674035624
 30
0.0
 40
1.49859994649887
 41
0.0
 71
     5
 72
     1
  1
\fArial|b0|i0;\H1.4986;Allgemeintoleranzen/General tolerances\PDIN ISO 2768-mLE\PTolerierung/Tolerances DIN 7167
  7
Text__3.5mm
 73
     2
 44
0.9442214369773864
  0
MTEXT
  5
2AD
330
291
100
AcDbEntity
  8
Symbols(ISO)
 62
     7
100
AcDbMText
 10
-58.5
 20
1.994178335368621
 30
0.0
 40
1.49859994649887
 41
0.0
 71
     5
 72
     1
  1
\fArial|b0|i0;\H1.4986;m
  7
Text__3.5mm
 73
     1
 44
1.0
  0
ENDBLK
  5
293
330
291
100
AcDbEntity
  8
0
100
AcDbBlockEnd
  0
BLOCK
  5
2AF
330
2AE
100
AcDbEntity
  8
0
100
AcDbBlockBegin
  2
GTA 15 DIN 1687
 70
     0
 10
0.0
 20
0.0
 30
0.0
  3
GTA 15 DIN 1687
  1

  0
LINE
  5
2B1
330
2AE
100
AcDbEntity
  8
Sketch Geometry(ISO)
100
AcDbLine
 10
-126.5
 20
36.99999999999999
 30
0.0
 11
0.0
 21
36.99999999999999
 31
0.0
  0
LINE
  5
2B2
330
2AE
100
AcDbEntity
  8
Sketch Geometry(ISO)
100
AcDbLine
 10
0.0
 20
36.99999999999999
 30
0.0
 11
0.0
 21
0.0
 31
0.0
  0
LINE
  5
2B3
330
2AE
100
AcDbEntity
  8
Sketch Geometry(ISO)
100
AcDbLine
 10
0.0
 20
0.0
 30
0.0
 11
-126.5
 21
0.0
 31
0.0
  0
LINE
  5
2B4
330
2AE
100
AcDbEntity
  8
Sketch Geometry(ISO)
100
AcDbLine
 10
-126.5
 20
0.0
 30
0.0
 11
-126.5
 21
36.99999999999999
 31
0.0
  0
LINE
  5
2B5
330
2AE
100
AcDbEntity
  8
Sketch Geometry(ISO)
100
AcDbLine
 10
-126.5
 20
31.99999999999996
 30
0.0
 11
0.0
 21
32.00000000000003
 31
0.0
  0
LINE
  5
2B6
330
2AE
100
AcDbEntity
  8
Sketch Geometry(ISO)
370
    35
100
AcDbLine
 10
-116.5
 20
9.999999999999964
 30
0.0
 11
0.0
 21
10.00000000000003
 31
0.0
  0
LINE
  5
2B7
330
2AE
100
AcDbEntity
  8
Sketch Geometry(ISO)
370
    35
100
AcDbLine
 10
-101.5
 20
0.0
 30
0.0
 11
-101.5
 21
31.99999999999996
 31
0.0
  0
LINE
  5
2B8
330
2AE
100
AcDbEntity
  8
Sketch Geometry(ISO)
370
    35
100
AcDbLine
 10
-19.0
 20
0.0
 30
0.0
 11
-19.00000000000002
 21
31.99999999999999
 31
0.0
  0
LINE
  5
2B9
330
2AE
100
AcDbEntity
  8
Sketch Geometry(ISO)
100
AcDbLine
 10
-116.5
 20
0.0
 30
0.0
 11
-116.5
 21
31.99999999999996
 31
0.0
  0
LINE
  5
2BA
330
2AE
100
AcDbEntity
  8
Sketch Geometry(ISO)
100
AcDbLine
 10
0.0
 20
16.00000000000005
 30
0.0
 11
-126.5
 21
15.99999999999998
 31
0.0
  0
LINE
  5
2BB
330
2AE
100
AcDbEntity
  8
Sketch Geometry(ISO)
370
    35
100
AcDbLine
 10
-94.0
 20
0.0
 30
0.0
 11
-94.00000000000003
 21
27.99999999999997
 31
0.0
  0
LINE
  5
2BC
330
2AE
100
AcDbEntity
  8
Sketch Geometry(ISO)
370
    35
100
AcDbLine
 10
-86.5
 20
0.0
 30
0.0
 11
-86.5
 21
27.99999999999997
 31
0.0
  0
LINE
  5
2BD
330
2AE
100
AcDbEntity
  8
Sketch Geometry(ISO)
370
    35
100
AcDbLine
 10
-79.00000000000003
 20
0.0
 30
0.0
 11
-79.00000000000004
 21
27.99999999999997
 31
0.0
  0
LINE
  5
2BE
330
2AE
100
AcDbEntity
  8
Sketch Geometry(ISO)
370
    35
100
AcDbLine
 10
-71.50000000000003
 20
0.0
 30
0.0
 11
-71.50000000000004
 21
27.99999999999997
 31
0.0
  0
LINE
  5
2BF
330
2AE
100
AcDbEntity
  8
Sketch Geometry(ISO)
370
    35
100
AcDbLine
 10
-64.00000000000003
 20
0.0
 30
0.0
 11
-64.00000000000004
 21
27.99999999999997
 31
0.0
  0
LINE
  5
2C0
330
2AE
100
AcDbEntity
  8
Sketch Geometry(ISO)
370
    35
100
AcDbLine
 10
-56.50000000000002
 20
0.0
 30
0.0
 11
-56.50000000000004
 21
27.99999999999997
 31
0.0
  0
LINE
  5
2C1
330
2AE
100
AcDbEntity
  8
Sketch Geometry(ISO)
370
    35
100
AcDbLine
 10
-49.00000000000002
 20
0.0
 30
0.0
 11
-49.00000000000004
 21
27.99999999999997
 31
0.0
  0
LINE
  5
2C2
330
2AE
100
AcDbEntity
  8
Sketch Geometry(ISO)
370
    35
100
AcDbLine
 10
-41.5
 20
0.0
 30
0.0
 11
-41.50000000000002
 21
27.99999999999997
 31
0.0
  0
LINE
  5
2C3
330
2AE
100
AcDbEntity
  8
Sketch Geometry(ISO)
370
    35
100
AcDbLine
 10
-34.0
 20
0.0
 30
0.0
 11
-34.00000000000002
 21
27.99999999999997
 31
0.0
  0
LINE
  5
2C4
330
2AE
100
AcDbEntity
  8
Sketch Geometry(ISO)
370
    35
100
AcDbLine
 10
-26.5
 20
0.0
 30
0.0
 11
-26.50000000000002
 21
27.99999999999997
 31
0.0
  0
MTEXT
  5
2C5
330
2AE
100
AcDbEntity
  8
Symbols(ISO)
 62
     7
100
AcDbMText
 10
-67.74999999999998
 20
34.26644225729007
 30
0.0
 40
1.49859994649887
 41
0.0
 71
     5
 72
     1
  1
\fArial|b0|i0;\W1.00;\H1.4986;Allgemeintoleranzen GTA 15 DIN 1687\PGeneral tolerances GTA 15 DIN 1687
  7
Text__3.5mm
 73
     2
 44
0.9442214369773864
  0
MTEXT
  5
2C6
330
2AE
100
AcDbEntity
  8
Symbols(ISO)
 62
     7
100
AcDbMText
 10
-67.74999999999998
 20
30.0
 30
0.0
 40
1.49859994649887
 41
0.0
 71
     5
 72
     1
  1
\fArial|b0|i0;\H1.4986;Nennmassbereich / nominal size range
  7
Text__3.5mm
 73
     1
 44
1.0
  0
MTEXT
  5
2C7
330
2AE
100
AcDbEntity
  8
Symbols(ISO)
 62
     7
100
AcDbMText
 10
-121.5
 20
23.76510841709869
 30
0.0
 40
1.49859994649887
 41
0.0
 71
     5
 72
     1
  1
\fArial|b0|i0;\H1.4986;Genauig-\Pkeitsgrad/\Pgrade of\Ptolerance
  7
Text__3.5mm
 73
     2
 44
0.9442214369773864
  0
MTEXT
  5
2C8
330
2AE
100
AcDbEntity
  8
Symbols(ISO)
 62
     7
100
AcDbMText
 10
-109.0
 20
24.2357516561945
 30
0.0
 40
1.49859994649887
 41
0.0
 71
     5
 72
     1
  1
\fArial|b0|i0;\H1.4986;Formab-\Phängigkeit/\Pmould\Pdependence
  7
Text__3.5mm
 73
     2
 44
0.9442214369773864
  0
MTEXT
  5
2C9
330
2AE
100
AcDbEntity
  8
Symbols(ISO)
 62
     7
100
AcDbMText
 10
-121.5
 20
8.000000000000007
 30
0.0
 40
1.49859994649887
 41
0.0
 71
     5
 72
     1
  1
\fArial|b0|i0;\H1.4986;GTA 15
  7
Text__3.5mm
 73
     1
 44
1.0
  0
MTEXT
  5
2CA
330
2AE
100
AcDbEntity
  8
Symbols(ISO)
 62
     7
100
AcDbMText
 10
-109.0
 20
12.7654344545056
 30
0.0
 40
1.500000059604644
 41
0.0
 71
     5
 72
     1
  1
\fArial|b1|i0;\H1.5000;formgebunden\Pmould-related
  7
Text__3.5mm
 73
     2
 44
0.9442214369773864
  0
MTEXT
  5
2CB
330
2AE
100
AcDbEntity
  8
Symbols(ISO)
 62
     7
100
AcDbMText
 10
-109.0
 20
4.765434454505488
 30
0.0
 40
1.500000059604644
 41
0.0
 71
     5
 72
     1
  1
\fArial|b1|i0;\H1.5000;nicht formge-\Pbunden/\Pnon-mould-\Prelated
  7
Text__3.5mm
 73
     2
 44
0.9442214369773864
  0
MTEXT
  5
2CC
330
2AE
100
AcDbEntity
  8
Symbols(ISO)
 62
     7
100
AcDbMText
 10
-9.50000000000001
 20
23.76644225728995
 30
0.0
 40
1.49859994649887
 41
0.0
 71
     5
 72
     1
  1
\fArial|b0|i0;\H1.4986;entspricht GTA\PReihe nach /\Pconforms to GTA\Pseries\Pacc. to\PDIN 1680 / 2
  7
Text__3.5mm
 73
     2
 44
0.9442214369773864
  0
MTEXT
  5
2CD
330
2AE
100
AcDbEntity
  8
Symbols(ISO)
 62
     7
100
AcDbMText
 10
-9.50000000000001
 20
12.99999999999997
 30
0.0
 40
1.49859994649887
 41
0.0
 71
     5
 72
     1
  1
\fArial|b0|i0;\H1.4986;GTA 15
  7
Text__3.5mm
 73
     1
 44
1.0
  0
MTEXT
  5
2CE
330
2AE
100
AcDbEntity
  8
Symbols(ISO)
 62
     7
100
AcDbMText
 10
-9.50000000000001
 20
4.765108417098709
 30
0.0
 40
1.49859994649887
 41
0.0
 71
     5
 72
     1
  1
\fArial|b0|i0;\H1.4986;GTA 15\Pmit Zuschlag/\Pwith machining\Pallowances
  7
Text__3.5mm
 73
     2
 44
0.9442214369773864
  0
MTEXT
  5
2CF
330
2AE
100
AcDbEntity
  8
Symbols(ISO)
 62
     7
100
AcDbMText
 10
-97.74999999999998
 20
18.26676829469697
 30
0.0
 40
1.500000059604644
 41
0.0
 71
     5
 72
     1
  1
\fArial|b1|i0;\W0.80;\H1.5000;bis/up to\P10
  7
Text__3.5mm
 73
     2
 44
0.9442214369773864
  0
MTEXT
  5
2D0
330
2AE
100
AcDbEntity
  8
Symbols(ISO)
 62
     7
100
AcDbMText
 10
-90.24999999999998
 20
21.76676829469699
 30
0.0
 40
1.500000059604644
 41
0.0
 71
     5
 72
     1
  1
\fArial|b1|i0;\W0.80;\H1.5000;über/\Pabove\P10\Pbis/up to\P18
  7
Text__3.5mm
 73
     2
 44
0.9442214369773864
  0
MTEXT
  5
2D1
330
2AE
100
AcDbEntity
  8
Symbols(ISO)
 62
     7
100
AcDbMText
 10
-60.24999999999998
 20
21.76676829469702
 30
0.0
 40
1.500000059604644
 41
0.0
 71
     5
 72
     1
  1
\fArial|b1|i0;\W0.80;\H1.5000;über/\Pabove\P80\Pbis/up to\P120
  7
Text__3.5mm
 73
     2
 44
0.9442214369773864
  0
MTEXT
  5
2D2
330
2AE
100
AcDbEntity
  8
Symbols(ISO)
 62
     7
100
AcDbMText
 10
-75.24999999999998
 20
21.76676829469702
 30
0.0
 40
1.500000059604644
 41
0.0
 71
     5
 72
     1
  1
\fArial|b1|i0;\W0.80;\H1.5000;über/\Pabove\P30\Pbis/up to\P50
  7
Text__3.5mm
 73
     2
 44
0.9442214369773864
  0
MTEXT
  5
2D3
330
2AE
100
AcDbEntity
  8
Symbols(ISO)
 62
     7
100
AcDbMText
 10
-82.74999999999998
 20
21.76676829469702
 30
0.0
 40
1.500000059604644
 41
0.0
 71
     5
 72
     1
  1
\fArial|b1|i0;\W0.80;\H1.5000;über/\Pabove\P18\Pbis/up to\P30
  7
Text__3.5mm
 73
     2
 44
0.9442214369773864
  0
MTEXT
  5
2D4
330
2AE
100
AcDbEntity
  8
Symbols(ISO)
 62
     7
100
AcDbMText
 10
-67.74999999999998
 20
21.76676829469702
 30
0.0
 40
1.500000059604644
 41
0.0
 71
     5
 72
     1
  1
\fArial|b1|i0;\W0.80;\H1.5000;über/\Pabove\P50\Pbis/up to\P80
  7
Text__3.5mm
 73
     2
 44
0.9442214369773864
  0
MTEXT
  5
2D5
330
2AE
100
AcDbEntity
  8
Symbols(ISO)
 62
     7
100
AcDbMText
 10
-52.74999999999998
 20
21.76676829469702
 30
0.0
 40
1.500000059604644
 41
0.0
 71
     5
 72
     1
  1
\fArial|b1|i0;\W0.80;\H1.5000;über/\Pabove\P120\Pbis/up to\P180
  7
Text__3.5mm
 73
     2
 44
0.9442214369773864
  0
MTEXT
  5
2D6
330
2AE
100
AcDbEntity
  8
Symbols(ISO)
 62
     7
100
AcDbMText
 10
-45.24999999999998
 20
21.76676829469702
 30
0.0
 40
1.500000059604644
 41
0.0
 71
     5
 72
     1
  1
\fArial|b1|i0;\W0.80;\H1.5000;über/\Pabove\P180\Pbis/up to\P250
  7
Text__3.5mm
 73
     2
 44
0.9442214369773864
  0
MTEXT
  5
2D7
330
2AE
100
AcDbEntity
  8
Symbols(ISO)
 62
     7
100
AcDbMText
 10
-37.74999999999999
 20
21.76676829469702
 30
0.0
 40
1.500000059604644
 41
0.0
 71
     5
 72
     1
  1
\fArial|b1|i0;\W0.80;\H1.5000;über/\Pabove\P250\Pbis/up to\P315
  7
Text__3.5mm
 73
     2
 44
0.9442214369773864
  0
MTEXT
  5
2D8
330
2AE
100
AcDbEntity
  8
Symbols(ISO)
 62
     7
100
AcDbMText
 10
-30.24999999999999
 20
21.76676829469702
 30
0.0
 40
1.500000059604644
 41
0.0
 71
     5
 72
     1
  1
\fArial|b1|i0;\W0.80;\H1.5000;über/\Pabove\P315\Pbis/up to\P400
  7
Text__3.5mm
 73
     2
 44
0.9442214369773864
  0
MTEXT
  5
2D9
330
2AE
100
AcDbEntity
  8
Symbols(ISO)
 62
     7
100
AcDbMText
 10
-22.74999999999999
 20
21.76676829469702
 30
0.0
 40
1.500000059604644
 41
0.0
 71
     5
 72
     1
  1
\fArial|b1|i0;\W0.80;\H1.5000;über/\Pabove\P400\Pbis/up to\P500
  7
Text__3.5mm
 73
     2
 44
0.9442214369773864
  0
MTEXT
  5
2DA
330
2AE
100
AcDbEntity
  8
Symbols(ISO)
 62
     7
100
AcDbMText
 10
-97.74999999999998
 20
4.999999999999964
 30
0.0
 40
1.49859994649887
 41
0.0
 71
     5
 72
     1
  1
\fArial|b0|i0;\H1.4986;±0,4
  7
Text__3.5mm
 73
     1
 44
1.0
  0
MTEXT
  5
2DB
330
2AE
100
AcDbEntity
  8
Symbols(ISO)
 62
     7
100
AcDbMText
 10
-90.24999999999998
 20
5.0
 30
0.0
 40
1.49859994649887
 41
0.0
 71
     5
 72
     1
  1
\fArial|b0|i0;\H1.4986;±0,45
  7
Text__3.5mm
 73
     1
 44
1.0
  0
MTEXT
  5
2DC
330
2AE
100
AcDbEntity
  8
Symbols(ISO)
 62
     7
100
AcDbMText
 10
-82.74999999999998
 20
5.0
 30
0.0
 40
1.49859994649887
 41
0.0
 71
     5
 72
     1
  1
\fArial|b0|i0;\H1.4986;±0,5
  7
Text__3.5mm
 73
     1
 44
1.0
  0
MTEXT
  5
2DD
330
2AE
100
AcDbEntity
  8
Symbols(ISO)
 62
     7
100
AcDbMText
 10
-30.24999999999999
 20
5.0
 30
0.0
 40
1.49859994649887
 41
0.0
 71
     5
 72
     1
  1
\fArial|b0|i0;\H1.4986;±1,5
  7
Text__3.5mm
 73
     1
 44
1.0
  0
MTEXT
  5
2DE
330
2AE
100
AcDbEntity
  8
Symbols(ISO)
 62
     7
100
AcDbMText
 10
-37.74999999999999
 20
5.0
 30
0.0
 40
1.49859994649887
 41
0.0
 71
     5
 72
     1
  1
\fArial|b0|i0;\H1.4986;±1,4
  7
Text__3.5mm
 73
     1
 44
1.0
  0
MTEXT
  5
2DF
330
2AE
100
AcDbEntity
  8
Symbols(ISO)
 62
     7
100
AcDbMText
 10
-52.74999999999998
 20
5.0
 30
0.0
 40
1.49859994649887
 41
0.0
 71
     5
 72
     1
  1
\fArial|b0|i0;\H1.4986;±1
  7
Text__3.5mm
 73
     1
 44
1.0
  0
MTEXT
  5
2E0
330
2AE
100
AcDbEntity
  8
Symbols(ISO)
 62
     7
100
AcDbMText
 10
-45.24999999999998
 20
5.0
 30
0.0
 40
1.49859994649887
 41
0.0
 71
     5
 72
     1
  1
\fArial|b0|i0;\H1.4986;±1,1
  7
Text__3.5mm
 73
     1
 44
1.0
  0
MTEXT
  5
2E1
330
2AE
100
AcDbEntity
  8
Symbols(ISO)
 62
     7
100
AcDbMText
 10
-60.24999999999998
 20
5.0
 30
0.0
 40
1.49859994649887
 41
0.0
 71
     5
 72
     1
  1
\fArial|b0|i0;\H1.4986;±0,9
  7
Text__3.5mm
 73
     1
 44
1.0
  0
MTEXT
  5
2E2
330
2AE
100
AcDbEntity
  8
Symbols(ISO)
 62
     7
100
AcDbMText
 10
-67.74999999999998
 20
5.0
 30
0.0
 40
1.49859994649887
 41
0.0
 71
     5
 72
     1
  1
\fArial|b0|i0;\H1.4986;±0,8
  7
Text__3.5mm
 73
     1
 44
1.0
  0
MTEXT
  5
2E3
330
2AE
100
AcDbEntity
  8
Symbols(ISO)
 62
     7
100
AcDbMText
 10
-75.24999999999998
 20
5.0
 30
0.0
 40
1.49859994649887
 41
0.0
 71
     5
 72
     1
  1
\fArial|b0|i0;\H1.4986;±0,6
  7
Text__3.5mm
 73
     1
 44
1.0
  0
MTEXT
  5
2E4
330
2AE
100
AcDbEntity
  8
Symbols(ISO)
 62
     7
100
AcDbMText
 10
-22.74999999999999
 20
5.0
 30
0.0
 40
1.49859994649887
 41
0.0
 71
     5
 72
     1
  1
\fArial|b0|i0;\H1.4986;±1,6
  7
Text__3.5mm
 73
     1
 44
1.0
  0
MTEXT
  5
2E5
330
2AE
100
AcDbEntity
  8
Symbols(ISO)
 62
     7
100
AcDbMText
 10
-30.24999999999999
 20
12.99999999999997
 30
0.0
 40
1.49859994649887
 41
0.0
 71
     5
 72
     1
  1
\fArial|b0|i0;\H1.4986;±1,2
  7
Text__3.5mm
 73
     1
 44
1.0
  0
MTEXT
  5
2E6
330
2AE
100
AcDbEntity
  8
Symbols(ISO)
 62
     7
100
AcDbMText
 10
-37.74999999999999
 20
12.99999999999997
 30
0.0
 40
1.49859994649887
 41
0.0
 71
     5
 72
     1
  1
\fArial|b0|i0;\H1.4986;±1,1
  7
Text__3.5mm
 73
     1
 44
1.0
  0
MTEXT
  5
2E7
330
2AE
100
AcDbEntity
  8
Symbols(ISO)
 62
     7
100
AcDbMText
 10
-45.24999999999998
 20
12.99999999999997
 30
0.0
 40
1.49859994649887
 41
0.0
 71
     5
 72
     1
  1
\fArial|b0|i0;\H1.4986;±0,95
  7
Text__3.5mm
 73
     1
 44
1.0
  0
MTEXT
  5
2E8
330
2AE
100
AcDbEntity
  8
Symbols(ISO)
 62
     7
100
AcDbMText
 10
-22.74999999999999
 20
12.99999999999997
 30
0.0
 40
1.49859994649887
 41
0.0
 71
     5
 72
     1
  1
\fArial|b0|i0;\H1.4986;±1,3
  7
Text__3.5mm
 73
     1
 44
1.0
  0
MTEXT
  5
2E9
330
2AE
100
AcDbEntity
  8
Symbols(ISO)
 62
     7
100
AcDbMText
 10
-67.74999999999998
 20
12.99999999999997
 30
0.0
 40
1.49859994649887
 41
0.0
 71
     5
 72
     1
  1
\fArial|b0|i0;\H1.4986;±0,6
  7
Text__3.5mm
 73
     1
 44
1.0
  0
MTEXT
  5
2EA
330
2AE
100
AcDbEntity
  8
Symbols(ISO)
 62
     7
100
AcDbMText
 10
-60.24999999999998
 20
12.99999999999997
 30
0.0
 40
1.49859994649887
 41
0.0
 71
     5
 72
     1
  1
\fArial|b0|i0;\H1.4986;±0,7
  7
Text__3.5mm
 73
     1
 44
1.0
  0
MTEXT
  5
2EB
330
2AE
100
AcDbEntity
  8
Symbols(ISO)
 62
     7
100
AcDbMText
 10
-52.74999999999998
 20
12.99999999999997
 30
0.0
 40
1.49859994649887
 41
0.0
 71
     5
 72
     1
  1
\fArial|b0|i0;\H1.4986;±0,8
  7
Text__3.5mm
 73
     1
 44
1.0
  0
MTEXT
  5
2EC
330
2AE
100
AcDbEntity
  8
Symbols(ISO)
 62
     7
100
AcDbMText
 10
-75.24999999999998
 20
12.99999999999997
 30
0.0
 40
1.49859994649887
 41
0.0
 71
     5
 72
     1
  1
\fArial|b0|i0;\H1.4986;±0,5
  7
Text__3.5mm
 73
     1
 44
1.0
  0
MTEXT
  5
2ED
330
2AE
100
AcDbEntity
  8
Symbols(ISO)
 62
     7
100
AcDbMText
 10
-90.24999999999998
 20
12.99999999999997
 30
0.0
 40
1.49859994649887
 41
0.0
 71
     5
 72
     1
  1
\fArial|b0|i0;\H1.4986;±0,35
  7
Text__3.5mm
 73
     1
 44
1.0
  0
MTEXT
  5
2EE
330
2AE
100
AcDbEntity
  8
Symbols(ISO)
 62
     7
100
AcDbMText
 10
-97.74999999999998
 20
12.99999999999997
 30
0.0
 40
1.49859994649887
 41
0.0
 71
     5
 72
     1
  1
\fArial|b0|i0;\H1.4986;±0,3
  7
Text__3.5mm
 73
     1
 44
1.0
  0
MTEXT
  5
2EF
330
2AE
100
AcDbEntity
  8
Symbols(ISO)
 62
     7
100
AcDbMText
 10
-82.74999999999998
 20
12.99999999999997
 30
0.0
 40
1.49859994649887
 41
0.0
 71
     5
 72
     1
  1
\fArial|b0|i0;\H1.4986;±0,4
  7
Text__3.5mm
 73
     1
 44
1.0
  0
ENDBLK
  5
2B0
330
2AE
100
AcDbEntity
  8
0
100
AcDbBlockEnd
  0
BLOCK
  5
2F1
330
2F0
100
AcDbEntity
  8
0
100
AcDbBlockBegin
  2
Werkstückkanten
 70
     2
 10
0.0
 20
0.0
 30
0.0
  3
Werkstückkanten
  1

  0
LINE
  5
2F3
102
{ACAD_REACTORS
330
2F6
102
}
330
2F0
100
AcDbEntity
  8
0
100
AcDbLine
 10
-10.99999999999949
 20
-2.749999999999488
 30
0.0
 11
-8.878679656440899
 21
-0.6286796564408803
 31
0.0
  0
LINE
  5
2F4
102
{ACAD_REACTORS
330
2F6
102
}
330
2F0
100
AcDbEntity
  8
0
100
AcDbLine
 10
-9.176811788195928
 20
-0.3305475246858336
 30
0.0
 11
-10.99999999999949
 21
-2.749999999999488
 31
0.0
  0
LINE
  5
2F5
102
{ACAD_REACTORS
330
2F6
102
}
330
2F0
100
AcDbEntity
  8
0
100
AcDbLine
 10
-8.878679656440899
 20
-0.6286796564408803
 30
0.0
 11
-9.176811788195928
 21
-0.3305475246858336
 31
0.0
  0
HATCH
  5
2F6
330
2F0
100
AcDbEntity
  8
Hatch
 62
     7
100
AcDbHatch
 10
0.0
 20
0.0
 30
0.0
210
0.0
220
0.0
230
1.0
  2
SOLID
 70
     1
 71
     1
 91
        1
 92
        1
 93
        3
 72
     1
 10
-10.99999999999949
 20
-2.749999999999488
 11
-8.878679656440899
 21
-0.6286796564408803
 72
     1
 10
-8.878679656440899
 20
-0.6286796564408803
 11
-9.176811788195928
 21
-0.3305475246858336
 72
     1
 10
-9.176811788195928
 20
-0.3305475246858336
 11
-10.99999999999949
 21
-2.749999999999488
 97
        3
330
2F3
330
2F5
330
2F4
 75
     0
 76
     1
 98
        1
 10
0.0
 20
0.0
450
        0
451
        0
460
0.0
461
0.0
452
        0
462
0.0
453
        0
470

  0
LINE
  5
2F7
102
{ACAD_REACTORS
330
2FA
102
}
330
2F0
100
AcDbEntity
  8
0
100
AcDbLine
 10
-10.99999999999949
 20
-2.749999999999488
 30
0.0
 11
-8.580547524685853
 21
-0.9268117881959092
 31
0.0
  0
LINE
  5
2F8
102
{ACAD_REACTORS
330
2FA
102
}
330
2F0
100
AcDbEntity
  8
0
100
AcDbLine
 10
-8.878679656440899
 20
-0.6286796564408803
 30
0.0
 11
-10.99999999999949
 21
-2.749999999999488
 31
0.0
  0
LINE
  5
2F9
102
{ACAD_REACTORS
330
2FA
102
}
330
2F0
100
AcDbEntity
  8
0
100
AcDbLine
 10
-8.580547524685853
 20
-0.9268117881959092
 30
0.0
 11
-8.878679656440899
 21
-0.6286796564408803
 31
0.0
  0
HATCH
  5
2FA
330
2F0
100
AcDbEntity
  8
Hatch
100
AcDbHatch
 10
0.0
 20
0.0
 30
0.0
210
0.0
220
0.0
230
1.0
  2
SOLID
 70
     1
 71
     1
 91
        1
 92
        1
 93
        3
 72
     1
 10
-10.99999999999949
 20
-2.749999999999488
 11
-8.580547524685853
 21
-0.9268117881959092
 72
     1
 10
-8.580547524685853
 20
-0.9268117881959092
 11
-8.878679656440899
 21
-0.6286796564408803
 72
     1
 10
-8.878679656440899
 20
-0.6286796564408803
 11
-10.99999999999949
 21
-2.749999999999488
 97
        3
330
2F7
330
2F9
330
2F8
 75
     0
 76
     1
 98
        1
 10
0.0
 20
0.0
450
        0
451
        0
460
0.0
461
0.0
452
        0
462
0.0
453
        0
470

  0
LINE
  5
2FB
102
{ACAD_REACTORS
330
2FE
102
}
330
2F0
100
AcDbEntity
  8
0
100
AcDbLine
 10
5.823188211804097
 20
-0.3305475246858336
 30
10.0
 11
6.419452475314164
 21
-0.9268117881958914
 31
10.0
  0
LINE
  5
2FC
102
{ACAD_REACTORS
330
2FE
102
}
330
2F0
100
AcDbEntity
  8
0
100
AcDbLine
 10
3.999999999999488
 20
-2.7500000000005
 30
10.0
 11
5.823188211804097
 21
-0.3305475246858336
 31
10.0
  0
LINE
  5
2FD
102
{ACAD_REACTORS
330
2FE
102
}
330
2F0
100
AcDbEntity
  8
0
100
AcDbLine
 10
6.419452475314164
 20
-0.9268117881958914
 30
10.0
 11
3.999999999999488
 21
-2.7500000000005
 31
10.0
  0
HATCH
  5
2FE
330
2F0
100
AcDbEntity
  8
Hatch
100
AcDbHatch
 10
0.0
 20
0.0
 30
0.0
210
0.0
220
0.0
230
1.0
  2
SOLID
 70
     1
 71
     1
 91
        1
 92
        1
 93
        3
 72
     1
 10
5.823188211804097
 20
-0.3305475246858336
 11
6.419452475314164
 21
-0.9268117881958914
 72
     1
 10
6.419452475314164
 20
-0.9268117881958914
 11
3.999999999999488
 21
-2.7500000000005
 72
     1
 10
3.999999999999488
 20
-2.7500000000005
 11
5.823188211804097
 21
-0.3305475246858336
 97
        3
330
2FB
330
2FD
330
2FC
 75
     0
 76
     1
 98
        1
 10
0.0
 20
0.0
450
        0
451
        0
460
0.0
461
0.0
452
        0
462
0.0
453
        0
470

  0
LINE
  5
2FF
330
2F0
100
AcDbEntity
  8
Sketch Geometry(ISO)
370
    50
100
AcDbLine
 10
-16.00000000000052
 20
-2.7500000000005
 30
0.0
 11
-10.99999999999949
 21
-2.749999999999488
 31
0.0
  0
LINE
  5
300
330
2F0
100
AcDbEntity
  8
Sketch Geometry(ISO)
370
    50
100
AcDbLine
 10
-10.99999999999949
 20
-2.749999999999488
 30
0.0
 11
-11.00000000000051
 21
-7.750000000000518
 31
0.0
  0
LINE
  5
301
330
2F0
100
AcDbEntity
  8
Sketch Geometry(ISO)
370
    50
100
AcDbLine
 10
3.999999999999479
 20
2.249999999999499
 30
0.0
 11
3.999999999999488
 21
-2.7500000000005
 31
0.0
  0
LINE
  5
302
330
2F0
100
AcDbEntity
  8
Sketch Geometry(ISO)
370
    50
100
AcDbLine
 10
3.999999999999488
 20
-2.7500000000005
 30
0.0
 11
8.999999999999488
 21
-2.750000000000518
 31
0.0
  0
LINE
  5
303
330
2F0
100
AcDbEntity
  8
Sketch Geometry(ISO)
370
    18
100
AcDbLine
 10
-10.99999999999949
 20
-2.749999999999488
 30
0.0
 11
-5.000000000000515
 21
3.249999999999495
 31
0.0
  0
LINE
  5
304
330
2F0
100
AcDbEntity
  8
Sketch Geometry(ISO)
370
    18
100
AcDbLine
 10
-5.000000000000515
 20
3.249999999999495
 30
0.0
 11
0.9999999999994901
 21
3.249999999999495
 31
0.0
  0
LINE
  5
305
330
2F0
100
AcDbEntity
  8
Sketch Geometry(ISO)
370
    18
100
AcDbLine
 10
6.122468800255562
 20
-0.6275311997444355
 30
0.0
 11
10.00000000000051
 21
3.250000000000508
 31
0.0
  0
LINE
  5
306
330
2F0
100
AcDbEntity
  8
Sketch Geometry(ISO)
370
    18
100
AcDbLine
 10
10.00000000000051
 20
3.250000000000508
 30
0.0
 11
16.00000000000052
 21
3.250000000000525
 31
0.0
  0
LINE
  5
307
330
2F0
100
AcDbEntity
  8
Sketch Geometry(ISO)
370
    25
100
AcDbLine
 10
-10.99999999999949
 20
-2.749999999999488
 30
0.0
 11
-9.176811788195928
 21
-0.3305475246858336
 31
0.0
  0
LINE
  5
308
330
2F0
100
AcDbEntity
  8
Sketch Geometry(ISO)
370
    25
100
AcDbLine
 10
-10.99999999999949
 20
-2.749999999999488
 30
0.0
 11
-8.580547524685853
 21
-0.9268117881959092
 31
0.0
  0
LINE
  5
309
330
2F0
100
AcDbEntity
  8
Sketch Geometry(ISO)
370
    25
100
AcDbLine
 10
3.999999999999488
 20
-2.7500000000005
 30
0.0
 11
5.823188211804097
 21
-0.3305475246858336
 31
0.0
  0
LINE
  5
30A
330
2F0
100
AcDbEntity
  8
Sketch Geometry(ISO)
370
    25
100
AcDbLine
 10
6.419452475314164
 20
-0.9268117881958914
 30
0.0
 11
3.999999999999488
 21
-2.7500000000005
 31
0.0
  0
LINE
  5
30B
330
2F0
100
AcDbEntity
  8
Sketch Geometry(ISO)
370
    18
100
AcDbLine
 10
10.50000000000052
 20
7.750000000000536
 30
0.0
 11
10.50000000000051
 21
3.750000000000532
 31
0.0
  0
LINE
  5
30C
330
2F0
100
AcDbEntity
  8
Sketch Geometry(ISO)
370
    18
100
AcDbLine
 10
10.50000000000051
 20
3.750000000000532
 30
0.0
 11
14.50000000000051
 21
3.750000000000532
 31
0.0
  0
LINE
  5
30D
330
2F0
100
AcDbEntity
  8
Sketch Geometry(ISO)
370
    18
100
AcDbLine
 10
-4.500000000000516
 20
7.749999999999506
 30
0.0
 11
-4.500000000000525
 21
3.749999999999502
 31
0.0
  0
LINE
  5
30E
330
2F0
100
AcDbEntity
  8
Sketch Geometry(ISO)
370
    18
100
AcDbLine
 10
-4.500000000000525
 20
3.749999999999502
 30
0.0
 11
-0.5000000000005223
 21
3.74999999999952
 31
0.0
  0
LINE
  5
30F
330
2F0
100
AcDbEntity
  8
Sketch Geometry(ISO)
100
AcDbLine
 10
-8.878679656440899
 20
-0.6286796564408803
 30
0.0
 11
-10.99999999999949
 21
-2.749999999999488
 31
0.0
  0
LINE
  5
310
330
2F0
100
AcDbEntity
  8
Sketch Geometry(ISO)
100
AcDbLine
 10
-9.176811788195928
 20
-0.3305475246858336
 30
0.0
 11
-8.580547524685853
 21
-0.9268117881959092
 31
0.0
  0
LINE
  5
311
330
2F0
100
AcDbEntity
  8
Sketch Geometry(ISO)
100
AcDbLine
 10
3.999999999999488
 20
-2.7500000000005
 30
0.0
 11
6.122468800255562
 21
-0.6275311997444355
 31
0.0
  0
LINE
  5
312
330
2F0
100
AcDbEntity
  8
Sketch Geometry(ISO)
100
AcDbLine
 10
5.823188211804097
 20
-0.3305475246858336
 30
0.0
 11
6.419452475314164
 21
-0.9268117881958914
 31
0.0
  0
ATTDEF
  5
313
330
2F0
100
AcDbEntity
  8
Symbols(ISO)
 62
     7
100
AcDbText
 10
-1.849317867711896
 20
4.509208735103494
 30
0.0
 40
2.000000029802322
  1
 
 41
0.899999976158142
  7
Text__3.5mm
 72
     1
 11
-1.500000000000527
 21
4.249999999999509
 31
0.0
100
AcDbAttributeDefinition
  3
-0.3^M-0.5
  2
-0.3^M-0.5
 70
     0
 74
     1
  0
ATTDEF
  5
316
330
2F0
100
AcDbEntity
  8
Symbols(ISO)
 62
     7
100
AcDbText
 10
13.15068213228914
 20
4.509208735104524
 30
0.0
 40
2.000000029802322
  1
 
 41
0.899999976158142
  7
Text__3.5mm
 72
     1
 11
13.50000000000051
 21
4.25000000000054
 31
0.0
100
AcDbAttributeDefinition
  3
+0.5^M+0.3
  2
+0.5^M+0.3
 70
     0
 74
     1
  0
ENDBLK
  5
2F2
330
2F0
100
AcDbEntity
  8
0
100
AcDbBlockEnd
  0
BLOCK
  5
318
330
317
100
AcDbEntity
  8
0
100
AcDbBlockBegin
  2
Index
 70
     2
 10
0.0
 20
0.0
 30
0.0
  3
Index
  1

  0
CIRCLE
  5
31A
330
317
100
AcDbEntity
  8
Sketch Geometry(ISO)
  6
Continuous
 62
     7
370
    25
100
AcDbCircle
 10
0.0
 20
0.0
 30
0.0
 40
2.5
  0
ATTDEF
  5
31B
330
317
100
AcDbEntity
  8
Symbols(ISO)
 62
     7
100
AcDbText
 10
-0.4366473281326594
 20
-1.25
 30
0.0
 40
2.5
  1
 
 41
0.899999976158142
  7
Text__3.5mm
 72
     1
 11
0.0
 21
0.0
 31
0.0
100
AcDbAttributeDefinition
  3
<Enter Prompt for Field>
  2
<Enter_Prompt_for_Field>
 70
     0
 74
     2
  0
ENDBLK
  5
319
330
317
100
AcDbEntity
  8
0
100
AcDbBlockEnd
  0
BLOCK
  5
31D
330
31C
100
AcDbEntity
  8
0
100
AcDbBlockBegin
  2
AIR
 70
     0
 10
0.0
 20
0.0
 30
0.0
  3
AIR
  1

  0
LINE
  5
31F
330
31C
100
AcDbEntity
  8
Sketch Geometry(ISO)
 62
     7
370
    70
100
AcDbLine
 10
-7.000000000000001
 20
6.000000000000049
 30
0.0
 11
6.999999999999992
 21
6.000000000000014
 31
0.0
  0
LINE
  5
320
330
31C
100
AcDbEntity
  8
Sketch Geometry(ISO)
 62
     7
370
    70
100
AcDbLine
 10
10.00000000000001
 20
3.000000000000007
 30
0.0
 11
10.00000000000001
 21
-2.999999999999971
 31
0.0
  0
LINE
  5
321
330
31C
100
AcDbEntity
  8
Sketch Geometry(ISO)
 62
     7
370
    70
100
AcDbLine
 10
6.999999999999992
 20
-5.999999999999978
 30
0.0
 11
-7.000000000000001
 21
-6.000000000000014
 31
0.0
  0
LINE
  5
322
330
31C
100
AcDbEntity
  8
Sketch Geometry(ISO)
 62
     7
370
    70
100
AcDbLine
 10
-10.00000000000001
 20
-2.999999999999971
 30
0.0
 11
-10.0
 21
3.000000000000007
 31
0.0
  0
ARC
  5
323
330
31C
100
AcDbEntity
  8
Sketch Geometry(ISO)
 62
     7
370
    70
100
AcDbCircle
 10
6.999999999999992
 20
3.000000000000007
 30
0.0
 40
3.0
100
AcDbArc
 50
0.0
 51
90.0
  0
ARC
  5
324
330
31C
100
AcDbEntity
  8
Sketch Geometry(ISO)
 62
     7
370
    70
100
AcDbCircle
 10
6.999999999999992
 20
-2.999999999999971
 30
0.0
 40
3.0
100
AcDbArc
 50
270.0
 51
0.0
  0
ARC
  5
325
330
31C
100
AcDbEntity
  8
Sketch Geometry(ISO)
 62
     7
370
    70
100
AcDbCircle
 10
-7.000000000000001
 20
-2.999999999999971
 30
0.0
 40
3.0
100
AcDbArc
 50
180.0
 51
270.0
  0
ARC
  5
326
330
31C
100
AcDbEntity
  8
Sketch Geometry(ISO)
 62
     7
370
    70
100
AcDbCircle
 10
-7.000000000000001
 20
3.000000000000007
 30
0.0
 40
3.0
100
AcDbArc
 50
90.0
 51
180.0
  0
MTEXT
  5
327
330
31C
100
AcDbEntity
  8
Symbols(ISO)
 62
     7
100
AcDbMText
 10
0.0
 20
0.0
 30
0.0
 40
6.99999988079071
 41
16.10195276430038
 71
     5
 72
     1
  1
\fArial|b0|i0;\H7.0000;AIR
  7
Text__3.5mm
 73
     1
 44
1.0
  0
ENDBLK
  5
31E
330
31C
100
AcDbEntity
  8
0
100
AcDbBlockEnd
  0
BLOCK
  5
329
330
328
100
AcDbEntity
  8
0
100
AcDbBlockBegin
  2
Werkstückkanten Aussen
 70
     2
 10
0.0
 20
0.0
 30
0.0
  3
Werkstückkanten Aussen
  1

  0
LINE
  5
32B
102
{ACAD_REACTORS
330
32E
102
}
330
328
100
AcDbEntity
  8
0
100
AcDbLine
 10
-3.499999999998975
 20
-2.749999999998991
 30
0.0
 11
-1.378679656440384
 21
-0.628679656440383
 31
0.0
  0
LINE
  5
32C
102
{ACAD_REACTORS
330
32E
102
}
330
328
100
AcDbEntity
  8
0
100
AcDbLine
 10
-1.676811788195413
 20
-0.3305475246853362
 30
0.0
 11
-3.499999999998975
 21
-2.749999999998991
 31
0.0
  0
LINE
  5
32D
102
{ACAD_REACTORS
330
32E
102
}
330
328
100
AcDbEntity
  8
0
100
AcDbLine
 10
-1.378679656440384
 20
-0.628679656440383
 30
0.0
 11
-1.676811788195413
 21
-0.3305475246853362
 31
0.0
  0
HATCH
  5
32E
330
328
100
AcDbEntity
  8
Hatch
 62
     7
100
AcDbHatch
 10
0.0
 20
0.0
 30
0.0
210
0.0
220
0.0
230
1.0
  2
SOLID
 70
     1
 71
     1
 91
        1
 92
        1
 93
        3
 72
     1
 10
-3.499999999998975
 20
-2.749999999998991
 11
-1.378679656440384
 21
-0.628679656440383
 72
     1
 10
-1.378679656440384
 20
-0.628679656440383
 11
-1.676811788195413
 21
-0.3305475246853362
 72
     1
 10
-1.676811788195413
 20
-0.3305475246853362
 11
-3.499999999998975
 21
-2.749999999998991
 97
        3
330
32B
330
32D
330
32C
 75
     0
 76
     1
 98
        1
 10
0.0
 20
0.0
450
        0
451
        0
460
0.0
461
0.0
452
        0
462
0.0
453
        0
470

  0
LINE
  5
32F
102
{ACAD_REACTORS
330
332
102
}
330
328
100
AcDbEntity
  8
0
100
AcDbLine
 10
-3.499999999998975
 20
-2.749999999998991
 30
0.0
 11
-1.080547524685337
 21
-0.9268117881954118
 31
0.0
  0
LINE
  5
330
102
{ACAD_REACTORS
330
332
102
}
330
328
100
AcDbEntity
  8
0
100
AcDbLine
 10
-1.378679656440384
 20
-0.628679656440383
 30
0.0
 11
-3.499999999998975
 21
-2.749999999998991
 31
0.0
  0
LINE
  5
331
102
{ACAD_REACTORS
330
332
102
}
330
328
100
AcDbEntity
  8
0
100
AcDbLine
 10
-1.080547524685337
 20
-0.9268117881954118
 30
0.0
 11
-1.378679656440384
 21
-0.628679656440383
 31
0.0
  0
HATCH
  5
332
330
328
100
AcDbEntity
  8
Hatch
100
AcDbHatch
 10
0.0
 20
0.0
 30
0.0
210
0.0
220
0.0
230
1.0
  2
SOLID
 70
     1
 71
     1
 91
        1
 92
        1
 93
        3
 72
     1
 10
-3.499999999998975
 20
-2.749999999998991
 11
-1.080547524685337
 21
-0.9268117881954118
 72
     1
 10
-1.080547524685337
 20
-0.9268117881954118
 11
-1.378679656440384
 21
-0.628679656440383
 72
     1
 10
-1.378679656440384
 20
-0.628679656440383
 11
-3.499999999998975
 21
-2.749999999998991
 97
        3
330
32F
330
331
330
330
 75
     0
 76
     1
 98
        1
 10
0.0
 20
0.0
450
        0
451
        0
460
0.0
461
0.0
452
        0
462
0.0
453
        0
470

  0
LINE
  5
333
330
328
100
AcDbEntity
  8
Sketch Geometry(ISO)
370
    50
100
AcDbLine
 10
-8.500000000000005
 20
-2.750000000000003
 30
0.0
 11
-3.499999999998975
 21
-2.749999999998991
 31
0.0
  0
LINE
  5
334
330
328
100
AcDbEntity
  8
Sketch Geometry(ISO)
370
    50
100
AcDbLine
 10
-3.499999999998975
 20
-2.749999999998991
 30
0.0
 11
-3.499999999999996
 21
-7.750000000000021
 31
0.0
  0
LINE
  5
335
330
328
100
AcDbEntity
  8
Sketch Geometry(ISO)
370
    18
100
AcDbLine
 10
-3.499999999998975
 20
-2.749999999998991
 30
0.0
 11
2.5
 21
3.249999999999992
 31
0.0
  0
LINE
  5
336
330
328
100
AcDbEntity
  8
Sketch Geometry(ISO)
370
    18
100
AcDbLine
 10
2.5
 20
3.249999999999992
 30
0.0
 11
8.500000000000005
 21
3.249999999999992
 31
0.0
  0
LINE
  5
337
330
328
100
AcDbEntity
  8
Sketch Geometry(ISO)
370
    25
100
AcDbLine
 10
-3.499999999998975
 20
-2.749999999998991
 30
0.0
 11
-1.676811788195413
 21
-0.3305475246853362
 31
0.0
  0
LINE
  5
338
330
328
100
AcDbEntity
  8
Sketch Geometry(ISO)
370
    25
100
AcDbLine
 10
-3.499999999998975
 20
-2.749999999998991
 30
0.0
 11
-1.080547524685337
 21
-0.9268117881954118
 31
0.0
  0
LINE
  5
339
330
328
100
AcDbEntity
  8
Sketch Geometry(ISO)
370
    18
100
AcDbLine
 10
2.999999999999998
 20
7.750000000000003
 30
0.0
 11
2.999999999999989
 21
3.75
 31
0.0
  0
LINE
  5
33A
330
328
100
AcDbEntity
  8
Sketch Geometry(ISO)
370
    18
100
AcDbLine
 10
2.999999999999989
 20
3.75
 30
0.0
 11
6.999999999999992
 21
3.750000000000017
 31
0.0
  0
LINE
  5
33B
330
328
100
AcDbEntity
  8
Sketch Geometry(ISO)
100
AcDbLine
 10
-1.378679656440384
 20
-0.628679656440383
 30
0.0
 11
-3.499999999998975
 21
-2.749999999998991
 31
0.0
  0
LINE
  5
33C
330
328
100
AcDbEntity
  8
Sketch Geometry(ISO)
100
AcDbLine
 10
-1.676811788195413
 20
-0.3305475246853362
 30
0.0
 11
-1.080547524685337
 21
-0.9268117881954118
 31
0.0
  0
ATTDEF
  5
33D
330
328
100
AcDbEntity
  8
Symbols(ISO)
 62
     7
100
AcDbText
 10
5.650682132288618
 20
4.509208735103992
 30
0.0
 40
2.000000029802322
  1
 
 41
0.899999976158142
  7
Text__3.5mm
 72
     1
 11
5.999999999999987
 21
4.250000000000007
 31
0.0
100
AcDbAttributeDefinition
  3
-0.3^M-0.5
  2
-0.3^M-0.5
 70
     0
 74
     1
  0
ENDBLK
  5
32A
330
328
100
AcDbEntity
  8
0
100
AcDbBlockEnd
  0
BLOCK
  5
33F
330
33E
100
AcDbEntity
  8
0
100
AcDbBlockBegin
  2
Schliffrichtung
 70
     0
 10
0.0
 20
0.0
 30
0.0
  3
Schliffrichtung
  1

  0
LINE
  5
341
102
{ACAD_REACTORS
330
344
102
}
330
33E
100
AcDbEntity
  8
0
100
AcDbLine
 10
30.0
 20
1.339745962155625
 30
0.0
 11
30.0
 21
-1.339745962155625
 31
0.0
  0
LINE
  5
342
102
{ACAD_REACTORS
330
344
102
}
330
33E
100
AcDbEntity
  8
0
100
AcDbLine
 10
35.0
 20
0.0
 30
0.0
 11
30.0
 21
1.339745962155625
 31
0.0
  0
LINE
  5
343
102
{ACAD_REACTORS
330
344
102
}
330
33E
100
AcDbEntity
  8
0
100
AcDbLine
 10
30.0
 20
-1.339745962155625
 30
0.0
 11
35.0
 21
0.0
 31
0.0
  0
HATCH
  5
344
330
33E
100
AcDbEntity
  8
Hatch
 62
     7
100
AcDbHatch
 10
0.0
 20
0.0
 30
0.0
210
0.0
220
0.0
230
1.0
  2
SOLID
 70
     1
 71
     1
 91
        1
 92
        1
 93
        3
 72
     1
 10
30.0
 20
1.339745962155625
 11
30.0
 21
-1.339745962155625
 72
     1
 10
30.0
 20
-1.339745962155625
 11
35.0
 21
0.0
 72
     1
 10
35.0
 20
0.0
 11
30.0
 21
1.339745962155625
 97
        3
330
341
330
343
330
342
 75
     0
 76
     1
 98
        1
 10
0.0
 20
0.0
450
        0
451
        0
460
0.0
461
0.0
452
        0
462
0.0
453
        0
470

  0
LINE
  5
345
102
{ACAD_REACTORS
330
348
102
}
330
33E
100
AcDbEntity
  8
0
100
AcDbLine
 10
-35.0
 20
0.0
 30
0.0
 11
-30.00000000000001
 21
-1.339745962155625
 31
0.0
  0
LINE
  5
346
102
{ACAD_REACTORS
330
348
102
}
330
33E
100
AcDbEntity
  8
0
100
AcDbLine
 10
-30.00000000000001
 20
1.339745962155625
 30
0.0
 11
-35.0
 21
0.0
 31
0.0
  0
LINE
  5
347
102
{ACAD_REACTORS
330
348
102
}
330
33E
100
AcDbEntity
  8
0
100
AcDbLine
 10
-30.00000000000001
 20
-1.339745962155625
 30
0.0
 11
-30.00000000000001
 21
1.339745962155625
 31
0.0
  0
HATCH
  5
348
330
33E
100
AcDbEntity
  8
Hatch
100
AcDbHatch
 10
0.0
 20
0.0
 30
0.0
210
0.0
220
0.0
230
1.0
  2
SOLID
 70
     1
 71
     1
 91
        1
 92
        1
 93
        3
 72
     1
 10
-35.0
 20
0.0
 11
-30.00000000000001
 21
-1.339745962155625
 72
     1
 10
-30.00000000000001
 20
-1.339745962155625
 11
-30.00000000000001
 21
1.339745962155625
 72
     1
 10
-30.00000000000001
 20
1.339745962155625
 11
-35.0
 21
0.0
 97
        3
330
345
330
347
330
346
 75
     0
 76
     1
 98
        1
 10
0.0
 20
0.0
450
        0
451
        0
460
0.0
461
0.0
452
        0
462
0.0
453
        0
470

  0
LINE
  5
349
330
33E
100
AcDbEntity
  8
Sketch Geometry(ISO)
100
AcDbLine
 10
-30.00000000000001
 20
0.0
 30
0.0
 11
30.0
 21
0.0
 31
0.0
  0
LINE
  5
34A
330
33E
100
AcDbEntity
  8
Sketch Geometry(ISO)
100
AcDbLine
 10
-35.0
 20
0.0
 30
0.0
 11
-30.00000000000001
 21
1.339745962155625
 31
0.0
  0
LINE
  5
34B
330
33E
100
AcDbEntity
  8
Sketch Geometry(ISO)
100
AcDbLine
 10
-35.0
 20
0.0
 30
0.0
 11
-30.00000000000001
 21
-1.339745962155625
 31
0.0
  0
LINE
  5
34C
330
33E
100
AcDbEntity
  8
Sketch Geometry(ISO)
100
AcDbLine
 10
35.0
 20
0.0
 30
0.0
 11
30.0
 21
1.339745962155625
 31
0.0
  0
LINE
  5
34D
330
33E
100
AcDbEntity
  8
Sketch Geometry(ISO)
100
AcDbLine
 10
35.0
 20
0.0
 30
0.0
 11
30.0
 21
-1.339745962155625
 31
0.0
  0
LINE
  5
34E
330
33E
100
AcDbEntity
  8
Sketch Geometry(ISO)
100
AcDbLine
 10
-30.00000000000001
 20
1.339745962155625
 30
0.0
 11
-30.00000000000001
 21
-1.339745962155625
 31
0.0
  0
LINE
  5
34F
330
33E
100
AcDbEntity
  8
Sketch Geometry(ISO)
100
AcDbLine
 10
30.0
 20
1.339745962155625
 30
0.0
 11
30.0
 21
-1.339745962155625
 31
0.0
  0
MTEXT
  5
350
330
33E
100
AcDbEntity
  8
Symbols(ISO)
 62
     7
100
AcDbMText
 10
-19.80631252342108
 20
1.137747903288861
 30
0.0
 40
3.499999940395355
 41
0.0
 71
     7
 72
     1
  1
Oberfläche geschliffen
  7
Text__3.5mm
 73
     1
 44
1.0
  0
MTEXT
  5
351
330
33E
100
AcDbEntity
  8
Symbols(ISO)
 62
     7
100
AcDbMText
 10
-11.91883869782257
 20
-3.357217940930663
 30
0.0
 40
3.499999940395355
 41
0.0
 71
     4
 72
     1
  1
Schliffrichtung
  7
Text__3.5mm
 73
     1
 44
1.0
  0
ENDBLK
  5
340
330
33E
100
AcDbEntity
  8
0
100
AcDbBlockEnd
  0
BLOCK
  5
353
330
352
100
AcDbEntity
  8
0
100
AcDbBlockBegin
  2
Title Blocks WS-Marketing-FUN
 70
     2
 10
0.0
 20
0.0
 30
0.0
  3
Title Blocks WS-Marketing-FUN
  1

  0
LINE
  5
355
330
352
100
AcDbEntity
  8
Visible Edges(DIN)
100
AcDbLine
 10
89.59999999999997
 20
100.2741925130958
 30
0.0
 11
289.6
 21
100.2741925130958
 31
0.0
  0
LINE
  5
356
330
352
100
AcDbEntity
  8
Visible Edges(DIN)
100
AcDbLine
 10
289.6
 20
100.2741925130958
 30
0.0
 11
289.6
 21
146.0241925130958
 31
0.0
  0
LINE
  5
357
330
352
100
AcDbEntity
  8
Visible Edges(DIN)
100
AcDbLine
 10
289.6
 20
146.0241925130958
 30
0.0
 11
89.6
 21
146.0241925130958
 31
0.0
  0
LINE
  5
358
330
352
100
AcDbEntity
  8
Visible Edges(DIN)
100
AcDbLine
 10
89.59999999999999
 20
146.0241925130958
 30
0.0
 11
89.59999999999997
 21
100.2741925130958
 31
0.0
  0
LINE
  5
359
330
352
100
AcDbEntity
  8
Visible Edges(DIN)
100
AcDbLine
 10
154.6
 20
100.2741925130958
 30
0.0
 11
154.6
 21
146.0241925130958
 31
0.0
  0
LINE
  5
35A
330
352
100
AcDbEntity
  8
Visible Edges(DIN)
100
AcDbLine
 10
204.6
 20
100.2741925130958
 30
0.0
 11
204.6
 21
146.0241925130958
 31
0.0
  0
LINE
  5
35B
330
352
100
AcDbEntity
  8
Sketch Geometry(ISO)
  6
Continuous
 62
     7
370
    25
100
AcDbLine
 10
109.6
 20
131.0241925130958
 30
0.0
 11
109.6
 21
146.0241925130958
 31
0.0
  0
LINE
  5
35C
330
352
100
AcDbEntity
  8
Sketch Geometry(ISO)
  6
Continuous
 62
     7
370
    25
100
AcDbLine
 10
89.59999999999999
 20
138.5241925130958
 30
0.0
 11
154.6
 21
138.5241925130958
 31
0.0
  0
LINE
  5
35D
330
352
100
AcDbEntity
  8
Sketch Geometry(ISO)
  6
Continuous
 62
     7
370
    25
100
AcDbLine
 10
89.59999999999999
 20
131.0241925130958
 30
0.0
 11
154.6
 21
131.0241925130958
 31
0.0
  0
LINE
  5
35E
330
352
100
AcDbEntity
  8
Sketch Geometry(ISO)
  6
Continuous
 62
     7
370
    25
100
AcDbLine
 10
289.6
 20
110.2741925130957
 30
0.0
 11
204.6
 21
110.2741925130957
 31
0.0
  0
LINE
  5
35F
330
352
100
AcDbEntity
  8
Sketch Geometry(ISO)
  6
Continuous
 62
     7
370
    25
100
AcDbLine
 10
216.6
 20
100.2741925130958
 30
0.0
 11
216.6
 21
110.2741925130957
 31
0.0
  0
LINE
  5
360
330
352
100
AcDbEntity
  8
Sketch Geometry(ISO)
  6
Continuous
 62
     7
370
    25
100
AcDbLine
 10
282.1
 20
110.2741925130957
 30
0.0
 11
282.1
 21
100.2741925130958
 31
0.0
  0
LINE
  5
361
330
352
100
AcDbEntity
  8
Sketch Geometry(ISO)
  6
Continuous
 62
     7
370
    25
100
AcDbLine
 10
274.6
 20
110.2741925130957
 30
0.0
 11
274.6
 21
100.2741925130958
 31
0.0
  0
LINE
  5
362
330
352
100
AcDbEntity
  8
Sketch Geometry(ISO)
  6
Continuous
 62
     7
370
    25
100
AcDbLine
 10
220.7048524866916
 20
143.6616925130957
 30
0.0
 11
226.2048524866916
 21
144.4616925130957
 31
0.0
  0
LINE
  5
363
330
352
100
AcDbEntity
  8
Centerline(ISO)
  6
LONG_DASH_DOTTED
 62
     7
 48
10.16328048706054
370
    18
100
AcDbLine
 10
227.2048524866917
 20
142.4616925130957
 30
0.0
 11
219.7048524866915
 21
142.4616925130957
 31
0.0
  0
LINE
  5
364
330
352
100
AcDbEntity
  8
Sketch Geometry(ISO)
  6
Continuous
 62
     7
370
    25
100
AcDbLine
 10
220.7048524866916
 20
143.6616925130957
 30
0.0
 11
220.7048524866916
 21
141.2616925130957
 31
0.0
  0
LINE
  5
365
330
352
100
AcDbEntity
  8
Sketch Geometry(ISO)
  6
Continuous
 62
     7
370
    25
100
AcDbLine
 10
220.7048524866916
 20
141.2616925130957
 30
0.0
 11
226.2048524866916
 21
140.4616925130957
 31
0.0
  0
LINE
  5
366
330
352
100
AcDbEntity
  8
Centerline(ISO)
  6
LONG_DASH_DOTTED
 62
     7
 48
5.081640243530273
370
    18
100
AcDbLine
 10
227.7048524866915
 20
142.4616925130957
 30
0.0
 11
233.7048524866915
 21
142.4616925130957
 31
0.0
  0
LINE
  5
367
330
352
100
AcDbEntity
  8
Sketch Geometry(ISO)
  6
Continuous
 62
     7
370
    25
100
AcDbLine
 10
226.2048524866916
 20
144.4616925130957
 30
0.0
 11
226.2048524866916
 21
140.4616925130957
 31
0.0
  0
CIRCLE
  5
368
330
352
100
AcDbEntity
  8
Sketch Geometry(ISO)
  6
Continuous
 62
     7
370
    25
100
AcDbCircle
 10
230.7048524866915
 20
142.4616925130957
 30
0.0
 40
1.199999999999999
  0
LINE
  5
369
330
352
100
AcDbEntity
  8
Centerline(ISO)
  6
LONG_DASH_DOTTED
 62
     7
 48
5.081640243530273
370
    18
100
AcDbLine
 10
230.7048524866914
 20
145.4616925130957
 30
0.0
 11
230.7048524866914
 21
139.4616925130957
 31
0.0
  0
CIRCLE
  5
36A
330
352
100
AcDbEntity
  8
Sketch Geometry(ISO)
  6
Continuous
 62
     7
370
    25
100
AcDbCircle
 10
230.7048524866915
 20
142.4616925130957
 30
0.0
 40
2.0
  0
LINE
  5
36B
330
352
100
AcDbEntity
  8
Sketch Geometry(ISO)
  6
Continuous
 62
     7
370
    25
100
AcDbLine
 10
134.6
 20
131.0241925130958
 30
0.0
 11
134.6
 21
146.0241925130958
 31
0.0
  0
LINE
  5
36C
330
352
100
AcDbEntity
  8
Sketch Geometry(ISO)
  6
Continuous
 62
     7
370
    35
100
AcDbLine
 10
204.6
 20
138.5241925130958
 30
0.0
 11
289.6
 21
138.5241925130958
 31
0.0
  0
LINE
  5
36D
330
352
100
AcDbEntity
  8
Sketch Geometry(ISO)
  6
Continuous
 62
     7
370
    25
100
AcDbLine
 10
204.6
 20
131.0241925130958
 30
0.0
 11
289.6
 21
131.0241925130958
 31
0.0
  0
LINE
  5
36E
330
352
100
AcDbEntity
  8
Sketch Geometry(ISO)
  6
Continuous
 62
     7
370
    25
100
AcDbLine
 10
247.1
 20
146.0241925130957
 30
0.0
 11
247.1
 21
131.0241925130958
 31
0.0
  0
LINE
  5
36F
330
352
100
AcDbEntity
  8
Sketch Geometry(ISO)
  6
Continuous
 62
     7
370
    25
100
AcDbLine
 10
263.6
 20
110.2741925130957
 30
0.0
 11
263.6
 21
100.2741925130958
 31
0.0
  0
LINE
  5
370
330
352
100
AcDbEntity
  8
Sketch Geometry(DIN)
  6
Continuous
 62
     7
370
    18
100
AcDbLine
 10
104.8419687591776
 20
126.4474596613701
 30
0.0
 11
104.708542955785
 21
126.4474596613701
 31
0.0
  0
LINE
  5
371
330
352
100
AcDbEntity
  8
Sketch Geometry(DIN)
  6
Continuous
 62
     7
370
    18
100
AcDbLine
 10
104.8419687591776
 20
125.9871380380973
 30
0.0
 11
104.8419687591776
 21
126.4474596613701
 31
0.0
  0
LINE
  5
372
330
352
100
AcDbEntity
  8
Sketch Geometry(DIN)
  6
Continuous
 62
     7
370
    18
100
AcDbLine
 10
105.032169470591
 20
126.4492027126165
 30
0.0
 11
105.032169470591
 21
125.9888377298602
 31
0.0
  0
LINE
  5
373
330
352
100
AcDbEntity
  8
Sketch Geometry(DIN)
  6
Continuous
 62
     7
370
    18
100
AcDbLine
 10
106.9469156010504
 20
125.9888377298602
 30
0.0
 11
106.9469156010504
 21
126.6493414177054
 31
0.0
  0
LINE
  5
374
330
352
100
AcDbEntity
  8
Sketch Geometry(DIN)
  6
Continuous
 62
     7
370
    18
100
AcDbLine
 10
105.032169470591
 20
125.9888377298602
 30
0.0
 11
106.9469156010504
 21
125.9888377298602
 31
0.0
  0
LINE
  5
375
330
352
100
AcDbEntity
  8
Sketch Geometry(DIN)
  6
Continuous
 62
     7
370
    18
100
AcDbLine
 10
102.420185497654
 20
128.0753567911394
 30
0.0
 11
102.420185497654
 21
127.6550386275736
 31
0.0
  0
LINE
  5
376
330
352
100
AcDbEntity
  8
Sketch Geometry(DIN)
  6
Continuous
 62
     7
370
    18
100
AcDbLine
 10
103.5743629236721
 20
128.0753567911394
 30
0.0
 11
102.420185497654
 21
128.0753567911394
 31
0.0
  0
LINE
  5
377
330
352
100
AcDbEntity
  8
Sketch Geometry(DIN)
  6
Continuous
 62
     7
370
    18
100
AcDbLine
 10
103.4275910711816
 20
127.1946823167133
 30
0.0
 11
103.4275910711816
 21
127.6550386275736
 31
0.0
  0
LINE
  5
378
330
352
100
AcDbEntity
  8
Sketch Geometry(DIN)
  6
Continuous
 62
     7
370
    18
100
AcDbLine
 10
103.4275910711816
 20
127.6550386275736
 30
0.0
 11
103.5743629236721
 21
127.6550386275736
 31
0.0
  0
LINE
  5
379
330
352
100
AcDbEntity
  8
Sketch Geometry(DIN)
  6
Continuous
 62
     7
370
    18
100
AcDbLine
 10
103.5743629236721
 20
127.6550386275736
 30
0.0
 11
103.5743629236721
 21
128.0753567911394
 31
0.0
  0
LINE
  5
37A
330
352
100
AcDbEntity
  8
Sketch Geometry(DIN)
  6
Continuous
 62
     7
370
    18
100
AcDbLine
 10
103.7344894971573
 20
128.0753567911394
 30
0.0
 11
103.7344894971573
 21
127.6550386275736
 31
0.0
  0
LINE
  5
37B
330
352
100
AcDbEntity
  8
Sketch Geometry(DIN)
  6
Continuous
 62
     7
370
    18
100
AcDbLine
 10
103.8679153005499
 20
127.6550386275736
 30
0.0
 11
103.4275910711816
 21
127.1946823167133
 31
0.0
  0
LINE
  5
37C
330
352
100
AcDbEntity
  8
Sketch Geometry(DIN)
  6
Continuous
 62
     7
370
    18
100
AcDbLine
 10
103.7344894971573
 20
127.6550386275736
 30
0.0
 11
103.8679153005499
 21
127.6550386275736
 31
0.0
  0
LINE
  5
37D
330
352
100
AcDbEntity
  8
Sketch Geometry(DIN)
  6
Continuous
 62
     7
370
    18
100
AcDbLine
 10
104.0880947590273
 20
127.1813622833059
 30
0.0
 11
104.541765037493
 21
127.6616986442773
 31
0.0
  0
LINE
  5
37E
330
352
100
AcDbEntity
  8
Sketch Geometry(DIN)
  6
Continuous
 62
     7
370
    18
100
AcDbLine
 10
104.541765037493
 20
127.6616986442773
 30
0.0
 11
104.7152029724891
 21
127.6616986442773
 31
0.0
  0
LINE
  5
37F
330
352
100
AcDbEntity
  8
Sketch Geometry(DIN)
  6
Continuous
 62
     7
370
    18
100
AcDbLine
 10
104.7152029724891
 20
127.6616986442773
 30
0.0
 11
104.7152029724891
 21
128.0753567911394
 31
0.0
  0
LINE
  5
380
330
352
100
AcDbEntity
  8
Sketch Geometry(DIN)
  6
Continuous
 62
     7
370
    18
100
AcDbLine
 10
104.7152029724891
 20
128.0753567911394
 30
0.0
 11
103.7344894971573
 21
128.0753567911394
 31
0.0
  0
LINE
  5
381
330
352
100
AcDbEntity
  8
Sketch Geometry(DIN)
  6
Continuous
 62
     7
370
    18
100
AcDbLine
 10
106.466544552492
 20
126.8695208761829
 30
0.0
 11
106.466544552492
 21
127.2230827785689
 31
0.0
  0
LINE
  5
382
330
352
100
AcDbEntity
  8
Sketch Geometry(DIN)
  6
Continuous
 62
     7
370
    18
100
AcDbLine
 10
106.5065913716826
 20
126.4492027126165
 30
0.0
 11
106.0462697484097
 21
126.4492027126165
 31
0.0
  0
LINE
  5
383
330
352
100
AcDbEntity
  8
Sketch Geometry(DIN)
  6
Continuous
 62
     7
370
    18
100
AcDbLine
 10
106.0462697484097
 20
126.4492027126165
 30
0.0
 11
106.0462697484097
 21
126.8695208761829
 31
0.0
  0
LINE
  5
384
330
352
100
AcDbEntity
  8
Sketch Geometry(DIN)
  6
Continuous
 62
     7
370
    18
100
AcDbLine
 10
106.0462697484097
 20
126.8695208761829
 30
0.0
 11
106.466544552492
 21
126.8695208761829
 31
0.0
  0
LINE
  5
385
330
352
100
AcDbEntity
  8
Sketch Geometry(DIN)
  6
Continuous
 62
     7
370
    18
100
AcDbLine
 10
106.5065913716826
 20
127.4299161879484
 30
0.0
 11
106.9469156010504
 21
127.4299161879484
 31
0.0
  0
LINE
  5
386
330
352
100
AcDbEntity
  8
Sketch Geometry(DIN)
  6
Continuous
 62
     7
370
    18
100
AcDbLine
 10
106.466544552492
 20
127.2230827785689
 30
0.0
 11
106.0462697484097
 21
127.2230827785689
 31
0.0
  0
LINE
  5
387
330
352
100
AcDbEntity
  8
Sketch Geometry(DIN)
  6
Continuous
 62
     7
370
    18
100
AcDbLine
 10
106.5065913716826
 20
127.6500869745293
 30
0.0
 11
106.5065913716826
 21
127.4299161879484
 31
0.0
  0
LINE
  5
388
330
352
100
AcDbEntity
  8
Sketch Geometry(DIN)
  6
Continuous
 62
     7
370
    18
100
AcDbLine
 10
106.0462697484097
 20
127.6500869745293
 30
0.0
 11
106.5065913716826
 21
127.6500869745293
 31
0.0
  0
LINE
  5
389
330
352
100
AcDbEntity
  8
Sketch Geometry(DIN)
  6
Continuous
 62
     7
370
    18
100
AcDbLine
 10
106.0462697484097
 20
127.2230827785689
 30
0.0
 11
106.0462697484097
 21
127.6500869745293
 31
0.0
  0
LINE
  5
38A
330
352
100
AcDbEntity
  8
Sketch Geometry(DIN)
  6
Continuous
 62
     7
370
    18
100
AcDbLine
 10
105.2323081756798
 20
126.4492027126165
 30
0.0
 11
105.032169470591
 21
126.4492027126165
 31
0.0
  0
LINE
  5
38B
330
352
100
AcDbEntity
  8
Sketch Geometry(DIN)
  6
Continuous
 62
     7
370
    18
100
AcDbLine
 10
105.2323081756798
 20
127.6500869745293
 30
0.0
 11
105.2323081756798
 21
126.4492027126165
 31
0.0
  0
LINE
  5
38C
330
352
100
AcDbEntity
  8
Sketch Geometry(DIN)
  6
Continuous
 62
     7
370
    18
100
AcDbLine
 10
106.9469156010504
 20
127.4299161879484
 30
0.0
 11
106.9469156010504
 21
128.0770651547993
 31
0.0
  0
LINE
  5
38D
330
352
100
AcDbEntity
  8
Sketch Geometry(DIN)
  6
Continuous
 62
     7
370
    18
100
AcDbLine
 10
106.9469156010504
 20
128.0770651547993
 30
0.0
 11
105.032169470591
 21
128.0770651547993
 31
0.0
  0
LINE
  5
38E
330
352
100
AcDbEntity
  8
Sketch Geometry(DIN)
  6
Continuous
 62
     7
370
    18
100
AcDbLine
 10
105.032169470591
 20
128.0770651547993
 30
0.0
 11
105.032169470591
 21
127.6500869745293
 31
0.0
  0
LINE
  5
38F
330
352
100
AcDbEntity
  8
Sketch Geometry(DIN)
  6
Continuous
 62
     7
370
    18
100
AcDbLine
 10
102.0646377309122
 20
124.5375774404595
 30
0.0
 11
102.0646377309122
 21
129.533943808766
 31
0.0
  0
LINE
  5
390
330
352
100
AcDbEntity
  8
Sketch Geometry(DIN)
  6
Continuous
 62
     7
370
    18
100
AcDbLine
 10
102.2772726392172
 20
124.5367536102683
 30
0.0
 11
107.2676023428579
 21
124.5375774404595
 31
0.0
  0
LINE
  5
391
330
352
100
AcDbEntity
  8
Sketch Geometry(DIN)
  6
Continuous
 62
     7
370
    18
100
AcDbLine
 10
107.2676023428579
 20
124.5375774404595
 30
0.0
 11
107.2676023428579
 21
129.533943808766
 31
0.0
  0
LINE
  5
392
330
352
100
AcDbEntity
  8
Sketch Geometry(DIN)
  6
Continuous
 62
     7
370
    18
100
AcDbLine
 10
107.2676023428579
 20
129.533943808766
 30
0.0
 11
102.2772726392172
 21
129.533943808766
 31
0.0
  0
LINE
  5
393
330
352
100
AcDbEntity
  8
Sketch Geometry(DIN)
  6
Continuous
 62
     7
370
    18
100
AcDbLine
 10
104.708542955785
 20
126.4474596613701
 30
0.0
 11
104.0880947590273
 21
127.1813622833059
 31
0.0
  0
LINE
  5
394
330
352
100
AcDbEntity
  8
Sketch Geometry(DIN)
  6
Continuous
 62
     7
370
    18
100
AcDbLine
 10
103.7344894971573
 20
125.9871380380973
 30
0.0
 11
104.8419687591776
 21
125.9871380380973
 31
0.0
  0
LINE
  5
395
330
352
100
AcDbEntity
  8
Sketch Geometry(DIN)
  6
Continuous
 62
     7
370
    18
100
AcDbLine
 10
103.8679153005499
 20
126.4474596613701
 30
0.0
 11
103.7344894971573
 21
126.4474596613701
 31
0.0
  0
LINE
  5
396
330
352
100
AcDbEntity
  8
Sketch Geometry(DIN)
  6
Continuous
 62
     7
370
    18
100
AcDbLine
 10
103.7344894971573
 20
126.4474596613701
 30
0.0
 11
103.7344894971573
 21
125.9871380380973
 31
0.0
  0
LINE
  5
397
330
352
100
AcDbEntity
  8
Sketch Geometry(DIN)
  6
Continuous
 62
     7
370
    18
100
AcDbLine
 10
103.5810229403762
 20
125.9871380380973
 30
0.0
 11
103.5810229403762
 21
126.4474596613701
 31
0.0
  0
LINE
  5
398
330
352
100
AcDbEntity
  8
Sketch Geometry(DIN)
  6
Continuous
 62
     7
370
    18
100
AcDbLine
 10
103.4275910711816
 20
126.9478367757306
 30
0.0
 11
103.8679153005499
 21
126.4474596613701
 31
0.0
  0
LINE
  5
399
330
352
100
AcDbEntity
  8
Sketch Geometry(DIN)
  6
Continuous
 62
     7
370
    18
100
AcDbLine
 10
103.5810229403762
 20
126.4474596613701
 30
0.0
 11
103.4275910711816
 21
126.4474596613701
 31
0.0
  0
LINE
  5
39A
330
352
100
AcDbEntity
  8
Sketch Geometry(DIN)
  6
Continuous
 62
     7
370
    18
100
AcDbLine
 10
103.4275910711816
 20
126.4474596613701
 30
0.0
 11
103.4275910711816
 21
126.9478367757306
 31
0.0
  0
LINE
  5
39B
330
352
100
AcDbEntity
  8
Sketch Geometry(DIN)
  6
Continuous
 62
     7
370
    18
100
AcDbLine
 10
102.420185497654
 20
125.9871380380973
 30
0.0
 11
103.5810229403762
 21
125.9871380380973
 31
0.0
  0
LINE
  5
39C
330
352
100
AcDbEntity
  8
Sketch Geometry(DIN)
  6
Continuous
 62
     7
370
    18
100
AcDbLine
 10
102.420185497654
 20
126.4474596613701
 30
0.0
 11
102.420185497654
 21
125.9871380380973
 31
0.0
  0
LINE
  5
39D
330
352
100
AcDbEntity
  8
Sketch Geometry(DIN)
  6
Continuous
 62
     7
370
    18
100
AcDbLine
 10
102.6403649561314
 20
126.4474596613701
 30
0.0
 11
102.420185497654
 21
126.4474596613701
 31
0.0
  0
LINE
  5
39E
330
352
100
AcDbEntity
  8
Sketch Geometry(DIN)
  6
Continuous
 62
     7
370
    18
100
AcDbLine
 10
102.6403649561314
 20
127.6550386275736
 30
0.0
 11
102.6403649561314
 21
126.4474596613701
 31
0.0
  0
LINE
  5
39F
330
352
100
AcDbEntity
  8
Sketch Geometry(DIN)
  6
Continuous
 62
     7
370
    18
100
AcDbLine
 10
102.2772726392172
 20
129.533943808766
 30
0.0
 11
102.2772726392172
 21
124.5367536102683
 31
0.0
  0
LINE
  5
3A0
330
352
100
AcDbEntity
  8
Sketch Geometry(DIN)
  6
Continuous
 62
     7
370
    18
100
AcDbLine
 10
102.420185497654
 20
127.6550386275736
 30
0.0
 11
102.6403649561314
 21
127.6550386275736
 31
0.0
  0
LINE
  5
3A1
330
352
100
AcDbEntity
  8
Sketch Geometry(DIN)
  6
Continuous
 62
     7
370
    18
100
AcDbLine
 10
101.0907923978064
 20
127.656746991233
 30
0.0
 11
101.2509102993947
 21
127.656746991233
 31
0.0
  0
LINE
  5
3A2
330
352
100
AcDbEntity
  8
Sketch Geometry(DIN)
  6
Continuous
 62
     7
370
    18
100
AcDbLine
 10
101.0907923978064
 20
128.0770651547993
 30
0.0
 11
101.0907923978064
 21
127.656746991233
 31
0.0
  0
LINE
  5
3A3
330
352
100
AcDbEntity
  8
Sketch Geometry(DIN)
  6
Continuous
 62
     7
370
    18
100
AcDbLine
 10
101.6845398244714
 20
127.656746991233
 30
0.0
 11
101.9113792996529
 21
127.656746991233
 31
0.0
  0
LINE
  5
3A4
330
352
100
AcDbEntity
  8
Sketch Geometry(DIN)
  6
Continuous
 62
     7
370
    18
100
AcDbLine
 10
101.9113792996529
 20
128.0770651547993
 30
0.0
 11
101.0907923978064
 21
128.0770651547993
 31
0.0
  0
LINE
  5
3A5
330
352
100
AcDbEntity
  8
Sketch Geometry(DIN)
  6
Continuous
 62
     7
370
    18
100
AcDbLine
 10
101.9113792996529
 20
127.656746991233
 30
0.0
 11
101.9113792996529
 21
128.0770651547993
 31
0.0
  0
LINE
  5
3A6
330
352
100
AcDbEntity
  8
Sketch Geometry(DIN)
  6
Continuous
 62
     7
370
    18
100
AcDbLine
 10
97.58174406558607
 20
127.6521422140591
 30
0.0
 11
97.58174406558607
 21
128.0791117224321
 31
0.0
  0
LINE
  5
3A7
330
352
100
AcDbEntity
  8
Sketch Geometry(DIN)
  6
Continuous
 62
     7
370
    18
100
AcDbLine
 10
98.25965225020826
 20
127.6715672627784
 30
0.0
 11
98.08617962762557
 21
126.9844061643244
 31
0.0
  0
LINE
  5
3A8
330
352
100
AcDbEntity
  8
Sketch Geometry(DIN)
  6
Continuous
 62
     7
370
    18
100
AcDbLine
 10
98.08617962762557
 20
126.9844061643244
 30
0.0
 11
98.43978488949515
 21
126.9844061643244
 31
0.0
  0
LINE
  5
3A9
330
352
100
AcDbEntity
  8
Sketch Geometry(DIN)
  6
Continuous
 62
     7
370
    18
100
AcDbLine
 10
98.43978488949515
 20
126.9844061643244
 30
0.0
 11
98.25965225020826
 21
127.6715672627784
 31
0.0
  0
LINE
  5
3AA
330
352
100
AcDbEntity
  8
Sketch Geometry(DIN)
  6
Continuous
 62
     7
370
    18
100
AcDbLine
 10
97.58174406558607
 20
128.0791117224321
 30
0.0
 11
99.11619283597984
 21
128.0791117224321
 31
0.0
  0
LINE
  5
3AB
330
352
100
AcDbEntity
  8
Sketch Geometry(DIN)
  6
Continuous
 62
     7
370
    18
100
AcDbLine
 10
99.11619283597984
 20
127.6521422140591
 30
0.0
 11
98.94272021339663
 21
127.6521422140591
 31
0.0
  0
LINE
  5
3AC
330
352
100
AcDbEntity
  8
Sketch Geometry(DIN)
  6
Continuous
 62
     7
370
    18
100
AcDbLine
 10
99.11619283597984
 20
128.0791117224321
 30
0.0
 11
99.11619283597984
 21
127.6587935588663
 31
0.0
  0
LINE
  5
3AD
330
352
100
AcDbEntity
  8
Sketch Geometry(DIN)
  6
Continuous
 62
     7
370
    18
100
AcDbLine
 10
98.94272021339663
 20
127.6521422140591
 30
0.0
 11
99.30297682007381
 21
126.4512492802498
 31
0.0
  0
LINE
  5
3AE
330
352
100
AcDbEntity
  8
Sketch Geometry(DIN)
  6
Continuous
 62
     7
370
    18
100
AcDbLine
 10
99.30297682007381
 20
126.4512492802498
 30
0.0
 11
99.49645550845856
 21
126.4512492802498
 31
0.0
  0
LINE
  5
3AF
330
352
100
AcDbEntity
  8
Sketch Geometry(DIN)
  6
Continuous
 62
     7
370
    18
100
AcDbLine
 10
99.49645550845856
 20
126.4512492802498
 30
0.0
 11
99.49645550845856
 21
125.990927656977
 31
0.0
  0
LINE
  5
3B0
330
352
100
AcDbEntity
  8
Sketch Geometry(DIN)
  6
Continuous
 62
     7
370
    18
100
AcDbLine
 10
99.49645550845856
 20
125.990927656977
 30
0.0
 11
98.36231883582909
 21
125.990927656977
 31
0.0
  0
LINE
  5
3B1
330
352
100
AcDbEntity
  8
Sketch Geometry(DIN)
  6
Continuous
 62
     7
370
    18
100
AcDbLine
 10
98.36231883582909
 20
125.990927656977
 30
0.0
 11
98.36231883582909
 21
126.4512492802498
 31
0.0
  0
LINE
  5
3B2
330
352
100
AcDbEntity
  8
Sketch Geometry(DIN)
  6
Continuous
 62
     7
370
    18
100
AcDbLine
 10
98.36231883582909
 20
126.4512492802498
 30
0.0
 11
98.56910888572512
 21
126.4512492802498
 31
0.0
  0
LINE
  5
3B3
330
352
100
AcDbEntity
  8
Sketch Geometry(DIN)
  6
Continuous
 62
     7
370
    18
100
AcDbLine
 10
98.52241072172734
 20
126.6447279686345
 30
0.0
 11
98.00202754156533
 21
126.6447279686345
 31
0.0
  0
LINE
  5
3B4
330
352
100
AcDbEntity
  8
Sketch Geometry(DIN)
  6
Continuous
 62
     7
370
    18
100
AcDbLine
 10
98.56910888572512
 20
126.4512492802498
 30
0.0
 11
98.52241072172734
 21
126.6447279686345
 31
0.0
  0
LINE
  5
3B5
330
352
100
AcDbEntity
  8
Sketch Geometry(DIN)
  6
Continuous
 62
     7
370
    18
100
AcDbLine
 10
98.00202754156533
 20
126.6447279686345
 30
0.0
 11
97.94200067226325
 21
126.4512492802498
 31
0.0
  0
LINE
  5
3B6
330
352
100
AcDbEntity
  8
Sketch Geometry(DIN)
  6
Continuous
 62
     7
370
    18
100
AcDbLine
 10
97.94200067226325
 20
126.4512492802498
 30
0.0
 11
98.12879332825378
 21
126.4512492802498
 31
0.0
  0
LINE
  5
3B7
330
352
100
AcDbEntity
  8
Sketch Geometry(DIN)
  6
Continuous
 62
     7
370
    18
100
AcDbLine
 10
98.12879332825378
 20
126.4512492802498
 30
0.0
 11
98.12879332825378
 21
125.990927656977
 31
0.0
  0
LINE
  5
3B8
330
352
100
AcDbEntity
  8
Sketch Geometry(DIN)
  6
Continuous
 62
     7
370
    18
100
AcDbLine
 10
97.36822462381239
 20
126.4512492802498
 30
0.0
 11
97.74852198387851
 21
127.6521422140591
 31
0.0
  0
LINE
  5
3B9
330
352
100
AcDbEntity
  8
Sketch Geometry(DIN)
  6
Continuous
 62
     7
370
    18
100
AcDbLine
 10
97.22814747561304
 20
126.4512492802498
 30
0.0
 11
97.36822462381239
 21
126.4512492802498
 31
0.0
  0
LINE
  5
3BA
330
352
100
AcDbEntity
  8
Sketch Geometry(DIN)
  6
Continuous
 62
     7
370
    18
100
AcDbLine
 10
98.12879332825378
 20
125.990927656977
 30
0.0
 11
97.22814747561304
 21
125.990927656977
 31
0.0
  0
LINE
  5
3BB
330
352
100
AcDbEntity
  8
Sketch Geometry(DIN)
  6
Continuous
 62
     7
370
    18
100
AcDbLine
 10
97.22814747561304
 20
125.990927656977
 30
0.0
 11
97.22814747561304
 21
126.4512492802498
 31
0.0
  0
LINE
  5
3BC
330
352
100
AcDbEntity
  8
Sketch Geometry(DIN)
  6
Continuous
 62
     7
370
    18
100
AcDbLine
 10
97.74852198387851
 20
127.6521422140591
 30
0.0
 11
97.58174406558607
 21
127.6521422140591
 31
0.0
  0
LINE
  5
3BD
330
352
100
AcDbEntity
  8
Sketch Geometry(DIN)
  6
Continuous
 62
     7
370
    18
100
AcDbLine
 10
101.0707863320044
 20
125.9888377298602
 30
0.0
 11
101.6845398244714
 21
125.9888377298602
 31
0.0
  0
LINE
  5
3BE
330
352
100
AcDbEntity
  8
Sketch Geometry(DIN)
  6
Continuous
 62
     7
370
    18
100
AcDbLine
 10
100.5036963159481
 20
125.9888377298602
 30
0.0
 11
100.5036963159481
 21
126.4492027126165
 31
0.0
  0
LINE
  5
3BF
330
352
100
AcDbEntity
  8
Sketch Geometry(DIN)
  6
Continuous
 62
     7
370
    18
100
AcDbLine
 10
100.5036963159481
 20
126.4492027126165
 30
0.0
 11
100.330223693365
 21
126.4492027126165
 31
0.0
  0
LINE
  5
3C0
330
352
100
AcDbEntity
  8
Sketch Geometry(DIN)
  6
Continuous
 62
     7
370
    18
100
AcDbLine
 10
99.64972261161467
 20
125.9888377298602
 30
0.0
 11
100.5036963159481
 21
125.9888377298602
 31
0.0
  0
LINE
  5
3C1
330
352
100
AcDbEntity
  8
Sketch Geometry(DIN)
  6
Continuous
 62
     7
370
    18
100
AcDbLine
 10
99.85654734909727
 20
126.4492027126165
 30
0.0
 11
99.64972261161467
 21
126.4492027126165
 31
0.0
  0
LINE
  5
3C2
330
352
100
AcDbEntity
  8
Sketch Geometry(DIN)
  6
Continuous
 62
     7
370
    18
100
AcDbLine
 10
99.64972261161467
 20
126.4492027126165
 30
0.0
 11
99.64972261161467
 21
125.9888377298602
 31
0.0
  0
LINE
  5
3C3
330
352
100
AcDbEntity
  8
Sketch Geometry(DIN)
  6
Continuous
 62
     7
370
    18
100
AcDbLine
 10
101.6845398244714
 20
125.9888377298602
 30
0.0
 11
101.6845398244714
 21
127.656746991233
 31
0.0
  0
LINE
  5
3C4
330
352
100
AcDbEntity
  8
Sketch Geometry(DIN)
  6
Continuous
 62
     7
370
    18
100
AcDbLine
 10
100.330223693365
 20
126.4492027126165
 30
0.0
 11
100.330223693365
 21
127.2364374995637
 31
0.0
  0
LINE
  5
3C5
330
352
100
AcDbEntity
  8
Sketch Geometry(DIN)
  6
Continuous
 62
     7
370
    18
100
AcDbLine
 10
100.330223693365
 20
127.2364374995637
 30
0.0
 11
101.0707863320044
 21
125.9888377298602
 31
0.0
  0
LINE
  5
3C6
330
352
100
AcDbEntity
  8
Sketch Geometry(DIN)
  6
Continuous
 62
     7
370
    18
100
AcDbLine
 10
101.2509102993947
 20
127.656746991233
 30
0.0
 11
101.2509102993947
 21
126.9762459094827
 31
0.0
  0
LINE
  5
3C7
330
352
100
AcDbEntity
  8
Sketch Geometry(DIN)
  6
Continuous
 62
     7
370
    18
100
AcDbLine
 10
99.85654734909727
 20
127.656746991233
 30
0.0
 11
99.85654734909727
 21
126.4492027126165
 31
0.0
  0
LINE
  5
3C8
330
352
100
AcDbEntity
  8
Sketch Geometry(DIN)
  6
Continuous
 62
     7
370
    18
100
AcDbLine
 10
101.2509102993947
 20
126.9762459094827
 30
0.0
 11
100.5904152834459
 21
128.0770651547993
 31
0.0
  0
LINE
  5
3C9
330
352
100
AcDbEntity
  8
Sketch Geometry(DIN)
  6
Continuous
 62
     7
370
    18
100
AcDbLine
 10
99.64972261161467
 20
127.656746991233
 30
0.0
 11
99.85654734909727
 21
127.656746991233
 31
0.0
  0
LINE
  5
3CA
330
352
100
AcDbEntity
  8
Sketch Geometry(DIN)
  6
Continuous
 62
     7
370
    18
100
AcDbLine
 10
100.5904152834459
 20
128.0770651547993
 30
0.0
 11
99.64972261161467
 21
128.0770651547993
 31
0.0
  0
LINE
  5
3CB
330
352
100
AcDbEntity
  8
Sketch Geometry(DIN)
  6
Continuous
 62
     7
370
    18
100
AcDbLine
 10
99.64972261161467
 20
128.0770651547993
 30
0.0
 11
99.64972261161467
 21
127.656746991233
 31
0.0
  0
LINE
  5
3CC
330
352
100
AcDbEntity
  8
Sketch Geometry(DIN)
  6
Continuous
 62
     7
370
    18
100
AcDbLine
 10
99.11619283597984
 20
127.6587935588663
 30
0.0
 11
99.11619283597984
 21
127.6521422140591
 31
0.0
  0
LINE
  5
3CD
330
352
100
AcDbEntity
  8
Sketch Geometry(DIN)
  6
Continuous
 62
     7
370
    18
100
AcDbLine
 10
97.0742993553746
 20
124.5375774404595
 30
0.0
 11
102.0646377309122
 21
124.5375774404595
 31
0.0
  0
LINE
  5
3CE
330
352
100
AcDbEntity
  8
Sketch Geometry(DIN)
  6
Continuous
 62
     7
370
    18
100
AcDbLine
 10
97.0742993553746
 20
129.533943808766
 30
0.0
 11
97.0742993553746
 21
124.5375774404595
 31
0.0
  0
LINE
  5
3CF
330
352
100
AcDbEntity
  8
Sketch Geometry(DIN)
  6
Continuous
 62
     7
370
    18
100
AcDbLine
 10
102.0646377309122
 20
129.533943808766
 30
0.0
 11
97.0742993553746
 21
129.533943808766
 31
0.0
  0
LINE
  5
3D0
330
352
100
AcDbEntity
  8
Sketch Geometry(DIN)
  6
Continuous
 62
     7
370
    18
100
AcDbLine
 10
96.56334252697977
 20
127.3913696068958
 30
0.0
 11
96.55003116546891
 21
127.3313167219032
 31
0.0
  0
LINE
  5
3D1
330
352
100
AcDbEntity
  8
Sketch Geometry(DIN)
  6
Continuous
 62
     7
370
    18
100
AcDbLine
 10
96.55003116546891
 20
127.3313167219032
 30
0.0
 11
96.52999041207989
 21
127.2779498693052
 31
0.0
  0
LINE
  5
3D2
330
352
100
AcDbEntity
  8
Sketch Geometry(DIN)
  6
Continuous
 62
     7
370
    18
100
AcDbLine
 10
96.52999041207989
 20
127.2779498693052
 30
0.0
 11
96.50332432957416
 21
127.2178969843126
 31
0.0
  0
LINE
  5
3D3
330
352
100
AcDbEntity
  8
Sketch Geometry(DIN)
  6
Continuous
 62
     7
370
    18
100
AcDbLine
 10
96.46996354277778
 20
127.1711901484184
 30
0.0
 11
96.42991672358721
 21
127.1245180001106
 31
0.0
  0
LINE
  5
3D4
330
352
100
AcDbEntity
  8
Sketch Geometry(DIN)
  6
Continuous
 62
     7
370
    18
100
AcDbLine
 10
96.42991672358721
 20
127.1245180001106
 30
0.0
 11
96.38990459198366
 21
127.0778111642164
 31
0.0
  0
LINE
  5
3D5
330
352
100
AcDbEntity
  8
Sketch Geometry(DIN)
  6
Continuous
 62
     7
370
    18
100
AcDbLine
 10
96.38990459198366
 20
127.0778111642164
 30
0.0
 11
96.34319775608933
 21
127.0444590493165
 31
0.0
  0
LINE
  5
3D6
330
352
100
AcDbEntity
  8
Sketch Geometry(DIN)
  6
Continuous
 62
     7
370
    18
100
AcDbLine
 10
96.34319775608933
 20
127.0444590493165
 30
0.0
 11
96.28983957538782
 21
127.0177582792238
 31
0.0
  0
LINE
  5
3D7
330
352
100
AcDbEntity
  8
Sketch Geometry(DIN)
  6
Continuous
 62
     7
370
    18
100
AcDbLine
 10
96.28983957538782
 20
127.0177582792238
 30
0.0
 11
96.2631388052952
 21
126.9844061643244
 31
0.0
  0
LINE
  5
3D8
330
352
100
AcDbEntity
  8
Sketch Geometry(DIN)
  6
Continuous
 62
     7
370
    18
100
AcDbLine
 10
96.50332432957416
 20
127.2178969843126
 30
0.0
 11
96.46996354277778
 21
127.1711901484184
 31
0.0
  0
LINE
  5
3D9
330
352
100
AcDbEntity
  8
Sketch Geometry(DIN)
  6
Continuous
 62
     7
370
    18
100
AcDbLine
 10
96.50332432957416
 20
126.4440169183604
 30
0.0
 11
96.70346303466747
 21
126.4440169183604
 31
0.0
  0
LINE
  5
3DA
330
352
100
AcDbEntity
  8
Sketch Geometry(DIN)
  6
Continuous
 62
     7
370
    18
100
AcDbLine
 10
96.2631388052952
 20
126.9844061643244
 30
0.0
 11
96.50332432957416
 21
126.4440169183604
 31
0.0
  0
LINE
  5
3DB
330
352
100
AcDbEntity
  8
Sketch Geometry(DIN)
  6
Continuous
 62
     7
370
    18
100
AcDbLine
 10
96.70346303466747
 20
126.4440169183604
 30
0.0
 11
96.70346303466775
 21
125.9836519356054
 31
0.0
  0
LINE
  5
3DC
330
352
100
AcDbEntity
  8
Sketch Geometry(DIN)
  6
Continuous
 62
     7
370
    18
100
AcDbLine
 10
96.70346303466775
 20
125.9836519356054
 30
0.0
 11
95.96959510031894
 21
125.9836519356054
 31
0.0
  0
LINE
  5
3DD
330
352
100
AcDbEntity
  8
Sketch Geometry(DIN)
  6
Continuous
 62
     7
370
    18
100
AcDbLine
 10
96.12302696951054
 20
128.0652106719415
 30
0.0
 11
96.18307985450318
 21
128.0385185737453
 31
0.0
  0
LINE
  5
3DE
330
352
100
AcDbEntity
  8
Sketch Geometry(DIN)
  6
Continuous
 62
     7
370
    18
100
AcDbLine
 10
96.0029472152188
 20
128.0718706886462
 30
0.0
 11
96.0630001002108
 21
128.0718706886462
 31
0.0
  0
LINE
  5
3DF
330
352
100
AcDbEntity
  8
Sketch Geometry(DIN)
  6
Continuous
 62
     7
370
    18
100
AcDbLine
 10
96.0630001002108
 20
128.0718706886462
 30
0.0
 11
96.12302696951054
 21
128.0652106719415
 31
0.0
  0
LINE
  5
3E0
330
352
100
AcDbEntity
  8
Sketch Geometry(DIN)
  6
Continuous
 62
     7
370
    18
100
AcDbLine
 10
95.74951970459785
 20
127.5380373966253
 30
0.0
 11
95.73616498360301
 21
127.5580781500138
 31
0.0
  0
LINE
  5
3E1
330
352
100
AcDbEntity
  8
Sketch Geometry(DIN)
  6
Continuous
 62
     7
370
    18
100
AcDbLine
 10
91.85580337634981
 20
129.533943808766
 30
0.0
 11
91.85580337634981
 21
124.5375774404595
 31
0.0
  0
LINE
  5
3E2
330
352
100
AcDbEntity
  8
Sketch Geometry(DIN)
  6
Continuous
 62
     7
370
    18
100
AcDbLine
 10
91.85580337634981
 20
124.5375774404595
 30
0.0
 11
96.85282778428158
 21
124.5375774404595
 31
0.0
  0
LINE
  5
3E3
330
352
100
AcDbEntity
  8
Sketch Geometry(DIN)
  6
Continuous
 62
     7
370
    18
100
AcDbLine
 10
96.85282778428158
 20
124.5375774404595
 30
0.0
 11
96.85282778428158
 21
129.533943808766
 31
0.0
  0
LINE
  5
3E4
330
352
100
AcDbEntity
  8
Sketch Geometry(DIN)
  6
Continuous
 62
     7
370
    18
100
AcDbLine
 10
96.85282778428158
 20
129.533943808766
 30
0.0
 11
91.85580337634981
 21
129.533943808766
 31
0.0
  0
LINE
  5
3E5
330
352
100
AcDbEntity
  8
Sketch Geometry(DIN)
  6
Continuous
 62
     7
370
    18
100
AcDbLine
 10
94.51517059313244
 20
127.6515611969787
 30
0.0
 11
94.29502582224202
 21
127.6515611969787
 31
0.0
  0
LINE
  5
3E6
330
352
100
AcDbEntity
  8
Sketch Geometry(DIN)
  6
Continuous
 62
     7
370
    18
100
AcDbLine
 10
94.29502582224202
 20
127.6515611969787
 30
0.0
 11
94.29502582224202
 21
128.0718706886462
 31
0.0
  0
LINE
  5
3E7
330
352
100
AcDbEntity
  8
Sketch Geometry(DIN)
  6
Continuous
 62
     7
370
    18
100
AcDbLine
 10
94.29502582224202
 20
128.0718706886462
 30
0.0
 11
96.0029472152188
 21
128.0718706886462
 31
0.0
  0
LINE
  5
3E8
330
352
100
AcDbEntity
  8
Sketch Geometry(DIN)
  6
Continuous
 62
     7
370
    18
100
AcDbLine
 10
95.75617104940505
 20
127.5180313308232
 30
0.0
 11
95.74951970459785
 21
127.5380373966253
 31
0.0
  0
LINE
  5
3E9
330
352
100
AcDbEntity
  8
Sketch Geometry(DIN)
  6
Continuous
 62
     7
370
    18
100
AcDbLine
 10
95.63609996700732
 20
127.65814316661
 30
0.0
 11
95.61609390120526
 21
127.6648031833137
 31
0.0
  0
LINE
  5
3EA
330
352
100
AcDbEntity
  8
Sketch Geometry(DIN)
  6
Continuous
 62
     7
370
    18
100
AcDbLine
 10
95.73616498360301
 20
127.5580781500138
 30
0.0
 11
95.72951363879589
 21
127.5780842158158
 31
0.0
  0
LINE
  5
3EB
330
352
100
AcDbEntity
  8
Sketch Geometry(DIN)
  6
Continuous
 62
     7
370
    18
100
AcDbLine
 10
95.72951363879589
 20
127.5780842158158
 30
0.0
 11
95.7094989010973
 21
127.5980902816174
 31
0.0
  0
LINE
  5
3EC
330
352
100
AcDbEntity
  8
Sketch Geometry(DIN)
  6
Continuous
 62
     7
370
    18
100
AcDbLine
 10
95.67614678619788
 20
127.638137100808
 30
0.0
 11
95.66280073710002
 21
127.6447971175117
 31
0.0
  0
LINE
  5
3ED
330
352
100
AcDbEntity
  8
Sketch Geometry(DIN)
  6
Continuous
 62
     7
370
    18
100
AcDbLine
 10
95.7094989010973
 20
127.5980902816174
 30
0.0
 11
95.69615285199944
 21
127.6180963474194
 31
0.0
  0
LINE
  5
3EE
330
352
100
AcDbEntity
  8
Sketch Geometry(DIN)
  6
Continuous
 62
     7
370
    18
100
AcDbLine
 10
95.69615285199944
 20
127.6180963474194
 30
0.0
 11
95.67614678619788
 21
127.638137100808
 31
0.0
  0
LINE
  5
3EF
330
352
100
AcDbEntity
  8
Sketch Geometry(DIN)
  6
Continuous
 62
     7
370
    18
100
AcDbLine
 10
105.032169470591
 20
127.6500869745293
 30
0.0
 11
105.2323081756798
 21
127.6500869745293
 31
0.0
  0
LINE
  5
3F0
330
352
100
AcDbEntity
  8
Sketch Geometry(DIN)
  6
Continuous
 62
     7
370
    18
100
AcDbLine
 10
96.18307985450318
 20
128.0385185737453
 30
0.0
 11
96.22978669039742
 21
128.0185125079437
 31
0.0
  0
LINE
  5
3F1
330
352
100
AcDbEntity
  8
Sketch Geometry(DIN)
  6
Continuous
 62
     7
370
    18
100
AcDbLine
 10
96.22978669039742
 20
128.0185125079437
 30
0.0
 11
96.28983957538967
 21
127.9918117378511
 31
0.0
  0
LINE
  5
3F2
330
352
100
AcDbEntity
  8
Sketch Geometry(DIN)
  6
Continuous
 62
     7
370
    18
100
AcDbLine
 10
96.28983957538967
 20
127.9918117378511
 30
0.0
 11
96.32985170699658
 21
127.9584509510524
 31
0.0
  0
LINE
  5
3F3
330
352
100
AcDbEntity
  8
Sketch Geometry(DIN)
  6
Continuous
 62
     7
370
    18
100
AcDbLine
 10
96.32985170699658
 20
127.9584509510524
 30
0.0
 11
96.38320988769462
 21
127.9317588528585
 31
0.0
  0
LINE
  5
3F4
330
352
100
AcDbEntity
  8
Sketch Geometry(DIN)
  6
Continuous
 62
     7
370
    18
100
AcDbLine
 10
96.38320988769462
 20
127.9317588528585
 30
0.0
 11
96.42326537878004
 21
127.8917467212558
 31
0.0
  0
LINE
  5
3F5
330
352
100
AcDbEntity
  8
Sketch Geometry(DIN)
  6
Continuous
 62
     7
370
    18
100
AcDbLine
 10
96.42326537878004
 20
127.8917467212558
 30
0.0
 11
96.46327751038359
 21
127.8383798686578
 31
0.0
  0
LINE
  5
3F6
330
352
100
AcDbEntity
  8
Sketch Geometry(DIN)
  6
Continuous
 62
     7
370
    18
100
AcDbLine
 10
96.5700372312704
 20
127.4514224918879
 30
0.0
 11
96.56334252697977
 21
127.3913696068958
 31
0.0
  0
LINE
  5
3F7
330
352
100
AcDbEntity
  8
Sketch Geometry(DIN)
  6
Continuous
 62
     7
370
    18
100
AcDbLine
 10
96.57003723127045
 20
127.5114406892935
 30
0.0
 11
96.5700372312704
 21
127.4514224918879
 31
0.0
  0
LINE
  5
3F8
330
352
100
AcDbEntity
  8
Sketch Geometry(DIN)
  6
Continuous
 62
     7
370
    18
100
AcDbLine
 10
96.57003723127047
 20
127.5714935742857
 30
0.0
 11
96.57003723127045
 21
127.5114406892935
 31
0.0
  0
LINE
  5
3F9
330
352
100
AcDbEntity
  8
Sketch Geometry(DIN)
  6
Continuous
 62
     7
370
    18
100
AcDbLine
 10
96.56334252697977
 20
127.6315551311748
 30
0.0
 11
96.57003723127047
 21
127.5714935742857
 31
0.0
  0
LINE
  5
3FA
330
352
100
AcDbEntity
  8
Sketch Geometry(DIN)
  6
Continuous
 62
     7
370
    18
100
AcDbLine
 10
96.54333646117775
 20
127.6916080161674
 30
0.0
 11
96.56334252697977
 21
127.6315551311748
 31
0.0
  0
LINE
  5
3FB
330
352
100
AcDbEntity
  8
Sketch Geometry(DIN)
  6
Continuous
 62
     7
370
    18
100
AcDbLine
 10
96.52333039537621
 20
127.7382801644747
 30
0.0
 11
96.54333646117775
 21
127.6916080161674
 31
0.0
  0
LINE
  5
3FC
330
352
100
AcDbEntity
  8
Sketch Geometry(DIN)
  6
Continuous
 62
     7
370
    18
100
AcDbLine
 10
96.48996960857983
 20
127.7916730327631
 30
0.0
 11
96.52333039537621
 21
127.7382801644747
 31
0.0
  0
LINE
  5
3FD
330
352
100
AcDbEntity
  8
Sketch Geometry(DIN)
  6
Continuous
 62
     7
370
    18
100
AcDbLine
 10
96.46327751038359
 20
127.8383798686578
 30
0.0
 11
96.48996960857983
 21
127.7916730327631
 31
0.0
  0
LINE
  5
3FE
330
352
100
AcDbEntity
  8
Sketch Geometry(DIN)
  6
Continuous
 62
     7
370
    18
100
AcDbLine
 10
93.22251164791238
 20
126.4511799050758
 30
0.0
 11
93.22251164791238
 21
126.864838051938
 31
0.0
  0
LINE
  5
3FF
330
352
100
AcDbEntity
  8
Sketch Geometry(DIN)
  6
Continuous
 62
     7
370
    18
100
AcDbLine
 10
93.40264428719919
 20
126.4511799050758
 30
0.0
 11
93.22251164791238
 21
126.4511799050758
 31
0.0
  0
LINE
  5
400
330
352
100
AcDbEntity
  8
Sketch Geometry(DIN)
  6
Continuous
 62
     7
370
    18
100
AcDbLine
 10
92.3685726311659
 20
127.6520728388851
 30
0.0
 11
92.3685726311659
 21
126.4511799050758
 31
0.0
  0
LINE
  5
401
330
352
100
AcDbEntity
  8
Sketch Geometry(DIN)
  6
Continuous
 62
     7
370
    18
100
AcDbLine
 10
92.16839923849006
 20
127.6520728388851
 30
0.0
 11
92.3685726311659
 21
127.6520728388851
 31
0.0
  0
LINE
  5
402
330
352
100
AcDbEntity
  8
Sketch Geometry(DIN)
  6
Continuous
 62
     7
370
    18
100
AcDbLine
 10
93.22251164791238
 20
126.864838051938
 30
0.0
 11
93.63616979477448
 21
126.864838051938
 31
0.0
  0
LINE
  5
403
330
352
100
AcDbEntity
  8
Sketch Geometry(DIN)
  6
Continuous
 62
     7
370
    18
100
AcDbLine
 10
93.63616979477448
 20
126.864838051938
 30
0.0
 11
93.63616979477448
 21
127.2250946586152
 31
0.0
  0
LINE
  5
404
330
352
100
AcDbEntity
  8
Sketch Geometry(DIN)
  6
Continuous
 62
     7
370
    18
100
AcDbLine
 10
93.22251164791238
 20
127.2250946586152
 30
0.0
 11
93.22251164791238
 21
127.6520728388851
 31
0.0
  0
LINE
  5
405
330
352
100
AcDbEntity
  8
Sketch Geometry(DIN)
  6
Continuous
 62
     7
370
    18
100
AcDbLine
 10
92.16839923849006
 20
128.0857370515493
 30
0.0
 11
92.16839923849006
 21
127.6520728388851
 31
0.0
  0
LINE
  5
406
330
352
100
AcDbEntity
  8
Sketch Geometry(DIN)
  6
Continuous
 62
     7
370
    18
100
AcDbLine
 10
94.12985220484376
 20
128.0857370515493
 30
0.0
 11
92.16839923849006
 21
128.0857370515493
 31
0.0
  0
LINE
  5
407
330
352
100
AcDbEntity
  8
Sketch Geometry(DIN)
  6
Continuous
 62
     7
370
    18
100
AcDbLine
 10
93.22251164791238
 20
127.6520728388851
 30
0.0
 11
93.67618192637806
 21
127.6520728388851
 31
0.0
  0
LINE
  5
408
330
352
100
AcDbEntity
  8
Sketch Geometry(DIN)
  6
Continuous
 62
     7
370
    18
100
AcDbLine
 10
93.67618192637806
 20
127.6520728388851
 30
0.0
 11
93.67618192637806
 21
127.4319280679947
 31
0.0
  0
LINE
  5
409
330
352
100
AcDbEntity
  8
Sketch Geometry(DIN)
  6
Continuous
 62
     7
370
    18
100
AcDbLine
 10
94.51517059313244
 20
126.4440169183623
 30
0.0
 11
94.51517059313244
 21
127.6515611969787
 31
0.0
  0
LINE
  5
40A
330
352
100
AcDbEntity
  8
Sketch Geometry(DIN)
  6
Continuous
 62
     7
370
    18
100
AcDbLine
 10
93.67618192637806
 20
127.4319280679947
 30
0.0
 11
94.12985220484376
 21
127.4319280679947
 31
0.0
  0
LINE
  5
40B
330
352
100
AcDbEntity
  8
Sketch Geometry(DIN)
  6
Continuous
 62
     7
370
    18
100
AcDbLine
 10
94.12985220484376
 20
127.4319280679947
 30
0.0
 11
94.12985220484376
 21
128.0857370515493
 31
0.0
  0
LINE
  5
40C
330
352
100
AcDbEntity
  8
Sketch Geometry(DIN)
  6
Continuous
 62
     7
370
    18
100
AcDbLine
 10
93.63616979477448
 20
127.2250946586152
 30
0.0
 11
93.22251164791238
 21
127.2250946586152
 31
0.0
  0
LINE
  5
40D
330
352
100
AcDbEntity
  8
Sketch Geometry(DIN)
  6
Continuous
 62
     7
370
    18
100
AcDbLine
 10
92.3685726311659
 20
126.4511799050758
 30
0.0
 11
92.16839923849006
 21
126.4511799050758
 31
0.0
  0
LINE
  5
40E
330
352
100
AcDbEntity
  8
Sketch Geometry(DIN)
  6
Continuous
 62
     7
370
    18
100
AcDbLine
 10
93.40264428719919
 20
125.990858281803
 30
0.0
 11
93.40264428719919
 21
126.4511799050758
 31
0.0
  0
LINE
  5
40F
330
352
100
AcDbEntity
  8
Sketch Geometry(DIN)
  6
Continuous
 62
     7
370
    18
100
AcDbLine
 10
92.16839923849006
 20
125.990858281803
 30
0.0
 11
93.40264428719919
 21
125.990858281803
 31
0.0
  0
LINE
  5
410
330
352
100
AcDbEntity
  8
Sketch Geometry(DIN)
  6
Continuous
 62
     7
370
    18
100
AcDbLine
 10
92.16839923849006
 20
126.4511799050758
 30
0.0
 11
92.16839923849006
 21
125.990858281803
 31
0.0
  0
LINE
  5
411
330
352
100
AcDbEntity
  8
Sketch Geometry(DIN)
  6
Continuous
 62
     7
370
    18
100
AcDbLine
 10
95.66280073710002
 20
127.6447971175117
 30
0.0
 11
95.63609996700732
 21
127.65814316661
 31
0.0
  0
LINE
  5
412
330
352
100
AcDbEntity
  8
Sketch Geometry(DIN)
  6
Continuous
 62
     7
370
    18
100
AcDbLine
 10
95.74285968789418
 20
127.3178926257348
 30
0.0
 11
95.74951970459785
 21
127.3378986915364
 31
0.0
  0
LINE
  5
413
330
352
100
AcDbEntity
  8
Sketch Geometry(DIN)
  6
Continuous
 62
     7
370
    18
100
AcDbLine
 10
95.74951970459785
 20
127.3378986915364
 30
0.0
 11
95.76286575369572
 21
127.3645994616291
 31
0.0
  0
LINE
  5
414
330
352
100
AcDbEntity
  8
Sketch Geometry(DIN)
  6
Continuous
 62
     7
370
    18
100
AcDbLine
 10
95.76286575369572
 20
127.3645994616291
 30
0.0
 11
95.76952577039946
 21
127.3846055274307
 31
0.0
  0
LINE
  5
415
330
352
100
AcDbEntity
  8
Sketch Geometry(DIN)
  6
Continuous
 62
     7
370
    18
100
AcDbLine
 10
95.76952577039946
 20
127.3846055274307
 30
0.0
 11
95.78287181949779
 21
127.4179663142276
 31
0.0
  0
LINE
  5
416
330
352
100
AcDbEntity
  8
Sketch Geometry(DIN)
  6
Continuous
 62
     7
370
    18
100
AcDbLine
 10
95.78287181949779
 20
127.4179663142276
 30
0.0
 11
95.78287181949779
 21
127.4379723800291
 31
0.0
  0
LINE
  5
417
330
352
100
AcDbEntity
  8
Sketch Geometry(DIN)
  6
Continuous
 62
     7
370
    18
100
AcDbLine
 10
95.78287181949779
 20
127.4379723800291
 30
0.0
 11
95.78287181949779
 21
127.4646644782248
 31
0.0
  0
LINE
  5
418
330
352
100
AcDbEntity
  8
Sketch Geometry(DIN)
  6
Continuous
 62
     7
370
    18
100
AcDbLine
 10
95.78287181949779
 20
127.4646644782248
 30
0.0
 11
95.76952577039946
 21
127.4846792159234
 31
0.0
  0
LINE
  5
419
330
352
100
AcDbEntity
  8
Sketch Geometry(DIN)
  6
Continuous
 62
     7
370
    18
100
AcDbLine
 10
95.76952577039946
 20
127.4846792159234
 30
0.0
 11
95.75617104940505
 21
127.5180313308232
 31
0.0
  0
LINE
  5
41A
330
352
100
AcDbEntity
  8
Sketch Geometry(DIN)
  6
Continuous
 62
     7
370
    18
100
AcDbLine
 10
95.61609390120526
 20
127.6648031833137
 30
0.0
 11
95.58939313111256
 21
127.6781579043086
 31
0.0
  0
LINE
  5
41B
330
352
100
AcDbEntity
  8
Sketch Geometry(DIN)
  6
Continuous
 62
     7
370
    18
100
AcDbLine
 10
95.58939313111256
 20
127.6781579043086
 30
0.0
 11
95.56938706531102
 21
127.6781579043086
 31
0.0
  0
LINE
  5
41C
330
352
100
AcDbEntity
  8
Sketch Geometry(DIN)
  6
Continuous
 62
     7
370
    18
100
AcDbLine
 10
95.56938706531102
 20
127.6781579043086
 30
0.0
 11
95.549380999509
 21
127.6781579043086
 31
0.0
  0
LINE
  5
41D
330
352
100
AcDbEntity
  8
Sketch Geometry(DIN)
  6
Continuous
 62
     7
370
    18
100
AcDbLine
 10
95.549380999509
 20
127.6781579043086
 30
0.0
 11
95.29584942613215
 21
127.6781579043086
 31
0.0
  0
LINE
  5
41E
330
352
100
AcDbEntity
  8
Sketch Geometry(DIN)
  6
Continuous
 62
     7
370
    18
100
AcDbLine
 10
95.29584942613215
 20
127.6781579043086
 30
0.0
 11
95.29584942613215
 21
127.191126839046
 31
0.0
  0
LINE
  5
41F
330
352
100
AcDbEntity
  8
Sketch Geometry(DIN)
  6
Continuous
 62
     7
370
    18
100
AcDbLine
 10
95.29584942613215
 20
127.191126839046
 30
0.0
 11
95.549380999509
 21
127.191126839046
 31
0.0
  0
LINE
  5
420
330
352
100
AcDbEntity
  8
Sketch Geometry(DIN)
  6
Continuous
 62
     7
370
    18
100
AcDbLine
 10
95.549380999509
 20
127.191126839046
 30
0.0
 11
95.56938706531102
 21
127.191126839046
 31
0.0
  0
LINE
  5
421
330
352
100
AcDbEntity
  8
Sketch Geometry(DIN)
  6
Continuous
 62
     7
370
    18
100
AcDbLine
 10
95.72951363879589
 20
127.2978865599328
 30
0.0
 11
95.74285968789418
 21
127.3178926257348
 31
0.0
  0
LINE
  5
422
330
352
100
AcDbEntity
  8
Sketch Geometry(DIN)
  6
Continuous
 62
     7
370
    18
100
AcDbLine
 10
95.7094989010973
 20
127.2778458065443
 30
0.0
 11
95.72951363879589
 21
127.2978865599328
 31
0.0
  0
LINE
  5
423
330
352
100
AcDbEntity
  8
Sketch Geometry(DIN)
  6
Continuous
 62
     7
370
    18
100
AcDbLine
 10
95.67614678619788
 20
127.2444936916444
 30
0.0
 11
95.69615285199944
 21
127.2645344450329
 31
0.0
  0
LINE
  5
424
330
352
100
AcDbEntity
  8
Sketch Geometry(DIN)
  6
Continuous
 62
     7
370
    18
100
AcDbLine
 10
95.66280073710002
 20
127.2378336749407
 30
0.0
 11
95.67614678619788
 21
127.2444936916444
 31
0.0
  0
LINE
  5
425
330
352
100
AcDbEntity
  8
Sketch Geometry(DIN)
  6
Continuous
 62
     7
370
    18
100
AcDbLine
 10
95.63609996700732
 20
127.2178276091387
 30
0.0
 11
95.66280073710002
 21
127.2378336749407
 31
0.0
  0
LINE
  5
426
330
352
100
AcDbEntity
  8
Sketch Geometry(DIN)
  6
Continuous
 62
     7
370
    18
100
AcDbLine
 10
95.61609390120526
 20
127.2044815600408
 30
0.0
 11
95.63609996700732
 21
127.2178276091387
 31
0.0
  0
LINE
  5
427
330
352
100
AcDbEntity
  8
Sketch Geometry(DIN)
  6
Continuous
 62
     7
370
    18
100
AcDbLine
 10
95.59608783540372
 20
127.1977868557497
 30
0.0
 11
95.61609390120526
 21
127.2044815600408
 31
0.0
  0
LINE
  5
428
330
352
100
AcDbEntity
  8
Sketch Geometry(DIN)
  6
Continuous
 62
     7
370
    18
100
AcDbLine
 10
95.56938706531102
 20
127.191126839046
 30
0.0
 11
95.59608783540372
 21
127.1977868557497
 31
0.0
  0
LINE
  5
429
330
352
100
AcDbEntity
  8
Sketch Geometry(DIN)
  6
Continuous
 62
     7
370
    18
100
AcDbLine
 10
95.69615285199944
 20
127.2645344450329
 30
0.0
 11
95.7094989010973
 21
127.2778458065443
 31
0.0
  0
LINE
  5
42A
330
352
100
AcDbEntity
  8
Sketch Geometry(DIN)
  6
Continuous
 62
     7
370
    18
100
AcDbLine
 10
94.29502582224202
 20
125.9836519356054
 30
0.0
 11
94.29502582224202
 21
126.4440169183623
 31
0.0
  0
LINE
  5
42B
330
352
100
AcDbEntity
  8
Sketch Geometry(DIN)
  6
Continuous
 62
     7
370
    18
100
AcDbLine
 10
94.29502582224202
 20
126.4440169183623
 30
0.0
 11
94.51517059313244
 21
126.4440169183623
 31
0.0
  0
LINE
  5
42C
330
352
100
AcDbEntity
  8
Sketch Geometry(DIN)
  6
Continuous
 62
     7
370
    18
100
AcDbLine
 10
95.48922405176057
 20
125.9836519356054
 30
0.0
 11
94.29502582224202
 21
125.9836519356054
 31
0.0
  0
LINE
  5
42D
330
352
100
AcDbEntity
  8
Sketch Geometry(DIN)
  6
Continuous
 62
     7
370
    18
100
AcDbLine
 10
95.30244006766654
 20
126.8776464434394
 30
0.0
 11
95.30244006766654
 21
126.4440169183623
 31
0.0
  0
LINE
  5
42E
330
352
100
AcDbEntity
  8
Sketch Geometry(DIN)
  6
Continuous
 62
     7
370
    18
100
AcDbLine
 10
95.30244006766654
 20
126.4440169183623
 30
0.0
 11
95.48922405176057
 21
126.4440169183623
 31
0.0
  0
LINE
  5
42F
330
352
100
AcDbEntity
  8
Sketch Geometry(DIN)
  6
Continuous
 62
     7
370
    18
100
AcDbLine
 10
95.58263772354912
 20
126.8776464434394
 30
0.0
 11
95.30244006766654
 21
126.8776464434394
 31
0.0
  0
LINE
  5
430
330
352
100
AcDbEntity
  8
Sketch Geometry(DIN)
  6
Continuous
 62
     7
370
    18
100
AcDbLine
 10
95.48922405176057
 20
126.4440169183623
 30
0.0
 11
95.48922405176057
 21
125.9836519356054
 31
0.0
  0
LINE
  5
431
330
352
100
AcDbEntity
  8
Sketch Geometry(DIN)
  6
Continuous
 62
     7
370
    18
100
AcDbLine
 10
95.96959510031894
 20
125.9836519356054
 30
0.0
 11
95.58263772354912
 21
126.8776464434394
 31
0.0
  0
LINE
  5
432
330
352
100
AcDbEntity
  8
Sketch Geometry(DIN)
  6
Continuous
 62
     7
370
    18
100
AcDbLine
 10
106.5065913716826
 20
126.6493414177054
 30
0.0
 11
106.5065913716826
 21
126.4492027126165
 31
0.0
  0
LINE
  5
433
330
352
100
AcDbEntity
  8
Sketch Geometry(DIN)
  6
Continuous
 62
     7
370
    18
100
AcDbLine
 10
106.9469156010504
 20
126.6493414177054
 30
0.0
 11
106.5065913716826
 21
126.6493414177054
 31
0.0
  0
LINE
  5
434
330
352
100
AcDbEntity
  8
Sketch Geometry(ISO)
  6
Continuous
 62
     7
370
    25
100
AcDbLine
 10
89.59999999999999
 20
110.2741925130958
 30
0.0
 11
154.6
 21
110.2741925130957
 31
0.0
  0
MTEXT
  5
435
330
352
100
AcDbEntity
  8
Symbols(ISO)
 62
     7
100
AcDbMText
 10
155.6
 20
144.5241925130958
 30
0.0
 40
1.49859994649887
 41
23.77876622243585
 71
     4
 72
     1
  1
Revision Description:
  7
Text__1.5mm
 73
     1
 44
1.0
  0
MTEXT
  5
436
330
352
100
AcDbEntity
  8
Symbols(ISO)
 62
     7
100
AcDbMText
 10
91.09999999999997
 20
105.2368704004262
 30
0.0
 40
1.299999952316284
 41
62.47629165649414
 71
     4
 72
     1
  1
\fArial|b0|i0;These drawings and specifications are the property of NIRO-Plan AG and shall not be reproduced, copied or transfered to any third party without the prior written permission of NIRO-Plan AG, Aarburg, Switzerland
  7
Text__1.3mm
 73
     2
 44
0.9442214369773864
  0
MTEXT
  5
437
330
352
100
AcDbEntity
  8
Symbols(ISO)
 62
     7
100
AcDbMText
 10
264.6
 20
108.7741925130957
 30
0.0
 40
1.49859994649887
 41
6.68705082292643
 71
     4
 72
     1
  1
\fArial|b0|i0;Rev.
  7
Text__1.5mm
 73
     1
 44
1.0
  0
MTEXT
  5
438
330
352
100
AcDbEntity
  8
Symbols(ISO)
 62
     7
100
AcDbMText
 10
275.6
 20
108.7741925130957
 30
0.0
 40
1.49859994649887
 41
6.68705082292643
 71
     4
 72
     1
  1
\fArial|b0|i0;Sheet
  7
Text__1.5mm
 73
     1
 44
1.0
  0
MTEXT
  5
439
330
352
100
AcDbEntity
  8
Symbols(ISO)
 62
     7
100
AcDbMText
 10
205.6
 20
108.7741925130957
 30
0.0
 40
1.49859994649887
 41
6.629477143287658
 71
     4
 72
     1
  1
\fArial|b0|i0;Format
  7
Text__1.5mm
 73
     1
 44
1.0
  0
MTEXT
  5
43A
330
352
100
AcDbEntity
  8
Symbols(ISO)
 62
     7
100
AcDbMText
 10
248.1
 20
137.0241925130958
 30
0.0
 40
1.49859994649887
 41
9.419934749603271
 71
     4
 72
     1
  1
EAN / UPC
  7
Text__1.5mm
 73
     1
 44
1.0
  0
MTEXT
  5
43B
330
352
100
AcDbEntity
  8
Symbols(ISO)
 62
     7
100
AcDbMText
 10
205.6
 20
144.3687682948396
 30
0.0
 40
1.49859994649887
 41
8.959617614746093
 71
     4
 72
     1
  1
Projection
  7
Text__1.5mm
 73
     1
 44
1.0
  0
MTEXT
  5
43C
330
352
100
AcDbEntity
  8
Symbols(ISO)
 62
     7
100
AcDbMText
 10
248.1
 20
144.3687682948396
 30
0.0
 40
1.49859994649887
 41
41.00067758866362
 71
     4
 72
     1
  1
Local part number (producing site)
  7
Text__1.5mm
 73
     1
 44
1.0
  0
MTEXT
  5
43D
330
352
100
AcDbEntity
  8
Symbols(ISO)
 62
     7
100
AcDbMText
 10
218.1
 20
108.7741925130957
 30
0.0
 40
1.49859994649887
 41
13.84170077910116
 71
     4
 72
     1
  1
Drawing number
  7
Text__1.5mm
 73
     1
 44
1.0
  0
MTEXT
  5
43E
330
352
100
AcDbEntity
  8
Symbols(ISO)
 62
     7
100
AcDbMText
 10
205.6
 20
137.0241925130958
 30
0.0
 40
1.49859994649887
 41
16.71329739486093
 71
     4
 72
     1
  1
WS global number
  7
Text__1.5mm
 73
     1
 44
1.0
  0
MTEXT
  5
43F
330
352
100
AcDbEntity
  8
Symbols(ISO)
 62
     7
100
AcDbMText
 10
283.1
 20
108.7741925130957
 30
0.0
 40
1.49859994649887
 41
6.68705082292643
 71
     4
 72
     1
  1
Sheets
  7
Text__1.5mm
 73
     1
 44
1.0
  0
MTEXT
  5
440
330
352
100
AcDbEntity
  8
Symbols(ISO)
 62
     7
100
AcDbMText
 10
91.09999999999997
 20
116.4337326665147
 30
0.0
 40
2.000000029802322
 41
51.58130403925817
 71
     4
 72
     1
  1
\fArial|b0|i0;\H2.0000;Franke Washroom Systems\PE-Mail: ws-info.int@franke.com\PInternet: www.franke.com
  7
Text__1.3mm
 73
     2
 44
0.9442214369773864
  0
MTEXT
  5
441
330
352
100
AcDbEntity
  8
Symbols(ISO)
 62
     7
100
AcDbMText
 10
90.6
 20
144.5241925130958
 30
0.0
 40
1.49859994649887
 41
8.959617614746093
 71
     4
 72
     1
  1
Drawn by
  7
Text__1.5mm
 73
     1
 44
1.0
  0
MTEXT
  5
442
330
352
100
AcDbEntity
  8
Symbols(ISO)
 62
     7
100
AcDbMText
 10
90.6
 20
137.0241925130958
 30
0.0
 40
1.49859994649887
 41
9.318276643753051
 71
     4
 72
     1
  1
Revised by
  7
Text__1.5mm
 73
     1
 44
1.0
  0
MTEXT
  5
443
330
352
100
AcDbEntity
  8
Symbols(ISO)
 62
     7
100
AcDbMText
 10
135.6
 20
137.0241925130958
 30
0.0
 40
1.49859994649887
 41
12.0866436953507
 71
     4
 72
     1
  1
Revision date
  7
Text__1.5mm
 73
     1
 44
1.0
  0
MTEXT
  5
444
330
352
100
AcDbEntity
  8
Symbols(ISO)
 62
     7
100
AcDbMText
 10
135.6
 20
144.5241925130958
 30
0.0
 40
1.49859994649887
 41
12.73810746214334
 71
     4
 72
     1
  1
Creation date
  7
Text__1.5mm
 73
     1
 44
1.0
  0
MTEXT
  5
445
330
352
100
AcDbEntity
  8
Symbols(ISO)
 62
     7
100
AcDbMText
 10
110.6
 20
144.5241925130958
 30
0.0
 40
1.49859994649887
 41
10.88769435882568
 71
     4
 72
     1
  1
Departement
  7
Text__1.5mm
 73
     1
 44
1.0
  0
MTEXT
  5
446
330
352
100
AcDbEntity
  8
Symbols(ISO)
 62
     7
100
AcDbMText
 10
110.6
 20
137.0241925130958
 30
0.0
 40
1.49859994649887
 41
13.53864551460898
 71
     4
 72
     1
  1
Departement
  7
Text__1.5mm
 73
     1
 44
1.0
  0
ATTDEF
  5
447
330
352
100
AcDbEntity
  8
Symbols(ISO)
 62
     7
100
AcDbText
 10
206.6
 20
123.5241925130958
 30
0.0
 40
5.0
  1
Waste Bin
  7
Parts-List_2.0mm
 11
206.6
 21
126.0241925130958
 31
0.0
100
AcDbAttributeDefinition
  3
Title
  2
Title
 70
     0
 74
     2
  0
ATTDEF
  5
448
330
352
100
AcDbEntity
  8
Symbols(ISO)
 62
     7
100
AcDbText
 10
206.6000000000001
 20
117.7741925428981
 30
0.0
 40
3.499999940395355
  1
RODX605
  7
Parts-List_2.0mm
 11
206.6000000000001
 21
119.5241925130958
 31
0.0
100
AcDbAttributeDefinition
  3
Auxiliary_Remark1
  2
Auxiliary_Remark1
 70
     0
 74
     2
  0
ATTDEF
  5
449
330
352
100
AcDbEntity
  8
Symbols(ISO)
 62
     7
100
AcDbText
 10
206.6
 20
111.2741925428982
 30
0.0
 40
3.499999940395355
  1

  7
Parts-List_2.0mm
 11
206.6
 21
113.0241925130958
 31
0.0
100
AcDbAttributeDefinition
  3
Auxiliary_Remark2
  2
Auxiliary_Remark2
 70
     0
 74
     2
  0
ATTDEF
  5
44A
330
352
100
AcDbEntity
  8
Symbols(ISO)
 62
     7
100
AcDbText
 10
248.1
 20
139.7741925130958
 30
0.0
 40
2.5
  1

  7
Parts-List_2.0mm
 11
248.1
 21
141.0241925130958
 31
0.0
100
AcDbAttributeDefinition
  3
Part_number
  2
Part_number
 70
     0
 74
     2
  0
ATTDEF
  5
44B
330
352
100
AcDbEntity
  8
Symbols(ISO)
 62
     7
100
AcDbText
 10
218.1
 20
101.7741925130958
 30
0.0
 40
5.0
  1
0187-107529
  7
Parts-List_2.0mm
 11
218.1
 21
104.2741925130957
 31
0.0
100
AcDbAttributeDefinition
  3
Document_Number
  2
Document_Number
 70
     0
 74
     2
  0
ATTDEF
  5
44C
330
352
100
AcDbEntity
  8
Symbols(ISO)
 62
     7
100
AcDbText
 10
155.6
 20
136.0241924832935
 30
0.0
 40
2.000000029802322
  1

  7
Parts-List_2.0mm
 11
155.6
 21
138.0241925130958
 31
0.0
100
AcDbAttributeDefinition
  3
Revision_Memo_1
  2
Revision_Memo_1
 70
     0
 74
     3
  0
ATTDEF
  5
44D
330
352
100
AcDbEntity
  8
Symbols(ISO)
 62
     7
100
AcDbText
 10
264.6
 20
101.7741925130957
 30
0.0
 40
5.0
  1
D
  7
Parts-List_2.0mm
 11
264.6
 21
104.2741925130957
 31
0.0
100
AcDbAttributeDefinition
  3
Revision_Index_1
  2
Revision_Index_1
 70
     0
 74
     2
  0
ATTDEF
  5
44E
330
352
100
AcDbEntity
  8
Symbols(ISO)
 62
     7
100
AcDbText
 10
205.6
 20
101.7741925130958
 30
0.0
 40
5.0
  1
A4
  7
Parts-List_2.0mm
 11
205.6
 21
104.2741925130957
 31
0.0
100
AcDbAttributeDefinition
  3
Sheet Size
  2
Sheet_Size
 70
     0
 74
     2
  0
ATTDEF
  5
44F
330
352
100
AcDbEntity
  8
Symbols(ISO)
 62
     7
100
AcDbText
 10
90.6
 20
140.0241924981947
 30
0.0
 40
2.000000029802322
  1
SW015
  7
Parts-List_2.0mm
 11
90.6
 21
141.0241925130958
 31
0.0
100
AcDbAttributeDefinition
  3
Drawn_By
  2
Drawn_By
 70
     0
 74
     2
  0
ATTDEF
  5
450
330
352
100
AcDbEntity
  8
Symbols(ISO)
 62
     7
100
AcDbText
 10
90.6
 20
132.5241924981947
 30
0.0
 40
2.000000029802322
  1
SW015
  7
Parts-List_2.0mm
 11
90.6
 21
133.5241925130958
 31
0.0
100
AcDbAttributeDefinition
  3
Modified_By
  2
Modified_By
 70
     0
 74
     2
  0
ATTDEF
  5
451
330
352
100
AcDbEntity
  8
Symbols(ISO)
 62
     7
100
AcDbText
 10
135.6
 20
140.0241924981947
 30
0.0
 40
2.000000029802322
  1
30.09.2009
  7
Parts-List_2.0mm
 11
135.6
 21
141.0241925130958
 31
0.0
100
AcDbAttributeDefinition
  3
Drawn_Date
  2
Drawn_Date
 70
     0
 74
     2
  0
ATTDEF
  5
452
330
352
100
AcDbEntity
  8
Symbols(ISO)
 62
     7
100
AcDbText
 10
135.6
 20
132.5241924981947
 30
0.0
 40
2.000000029802322
  1
20.10.2009
  7
Parts-List_2.0mm
 11
135.6
 21
133.5241925130958
 31
0.0
100
AcDbAttributeDefinition
  3
Modified_Date
  2
Modified_Date
 70
     0
 74
     2
  0
ATTDEF
  5
453
330
352
100
AcDbEntity
  8
Symbols(ISO)
 62
     7
100
AcDbText
 10
155.6
 20
140.0241924981946
 30
0.0
 40
2.000000029802322
  1

  7
Parts-List_2.0mm
 11
155.6
 21
141.0241925130958
 31
0.0
100
AcDbAttributeDefinition
  3
Revision_Titel_1
  2
Revision_Titel_1
 70
     0
 74
     2
  0
ATTDEF
  5
454
330
352
100
AcDbEntity
  8
Symbols(ISO)
 62
     7
100
AcDbText
 10
275.7285812427045
 20
101.7741925130957
 30
0.0
 40
5.0
  1
1 
 41
0.899999976158142
  7
Text__5.0mm
 72
     1
 11
278.35
 21
104.2741925130957
 31
0.0
100
AcDbAttributeDefinition
  3
Sheet number
  2
Sheet_number
 70
     0
 74
     2
  0
ATTDEF
  5
455
330
352
100
AcDbEntity
  8
Symbols(ISO)
 62
     7
100
AcDbText
 10
283.2285812427045
 20
101.7741925130957
 30
0.0
 40
5.0
  1
4 
 41
0.899999976158142
  7
Text__5.0mm
 72
     1
 11
285.85
 21
104.2741925130957
 31
0.0
100
AcDbAttributeDefinition
  3
Number of sheets
  2
Number_of_sheets
 70
     0
 74
     2
  0
ATTDEF
  5
456
330
352
100
AcDbEntity
  8
Symbols(ISO)
 62
     7
100
AcDbText
 10
205.6
 20
132.2741925130958
 30
0.0
 40
2.5
  1

  7
Parts-List_2.0mm
 11
205.6
 21
133.5241925130958
 31
0.0
100
AcDbAttributeDefinition
  3
FUN
  2
FUN
 70
     0
 74
     2
  0
ATTDEF
  5
457
330
352
100
AcDbEntity
  8
Symbols(ISO)
 62
     7
100
AcDbText
 10
248.1
 20
132.2741925130958
 30
0.0
 40
2.5
  1
7612210067167
  7
Parts-List_2.0mm
 11
248.1
 21
133.5241925130958
 31
0.0
100
AcDbAttributeDefinition
  3
EAN
  2
EAN
 70
     0
 74
     2
  0
ATTDEF
  5
458
330
352
100
AcDbEntity
  8
Symbols(ISO)
 62
     7
100
AcDbText
 10
110.6
 20
132.5241924981947
 30
0.0
 40
2.000000029802322
  1
FRK-Marketing
  7
Parts-List_2.0mm
 11
110.6
 21
133.5241925130958
 31
0.0
100
AcDbAttributeDefinition
  3
Departement
  2
Departement
 70
     0
 74
     2
  0
ATTDEF
  5
459
330
352
100
AcDbEntity
  8
Symbols(ISO)
 62
     7
100
AcDbText
 10
110.6
 20
140.0241924981947
 30
0.0
 40
2.000000029802322
  1
FRK-Marketing
  7
Parts-List_2.0mm
 11
110.6
 21
141.0241925130958
 31
0.0
100
AcDbAttributeDefinition
  3
Departement
  2
Departement
 70
     0
 74
     2
  0
ENDBLK
  5
354
330
352
100
AcDbEntity
  8
0
100
AcDbBlockEnd
  0
BLOCK
  5
470
330
46F
100
AcDbEntity
  8
0
100
AcDbBlockBegin
  2
Borders Verkauf Border_85x80
 70
     0
 10
0.0
 20
0.0
 30
0.0
  3
Borders Verkauf Border_85x80
  1

  0
LINE
  5
472
330
46F
100
AcDbEntity
  8
Phantom Lines(ISO)
 48
27.41272354125977
100
AcDbLine
 10
20.00000000000014
 20
228.0000000000001
 30
0.0
 11
190.0
 21
228.0000000000001
 31
0.0
  0
LINE
  5
473
330
46F
100
AcDbEntity
  8
Phantom Lines(ISO)
 48
25.80020904541016
100
AcDbLine
 10
190.0
 20
228.0000000000001
 30
0.0
 11
190.0
 21
68.00000000000004
 31
0.0
  0
LINE
  5
474
330
46F
100
AcDbEntity
  8
Phantom Lines(ISO)
 48
27.41272354125977
100
AcDbLine
 10
190.0
 20
68.00000000000003
 30
0.0
 11
20.0
 21
68.00000000000003
 31
0.0
  0
LINE
  5
475
330
46F
100
AcDbEntity
  8
Phantom Lines(ISO)
 48
25.80020904541016
100
AcDbLine
 10
20.0
 20
68.00000000000003
 30
0.0
 11
20.00000000000014
 21
228.0000000000001
 31
0.0
  0
LINE
  5
476
330
46F
100
AcDbEntity
  8
Sketch Geometry(ISO)
100
AcDbLine
 10
204.9999999999999
 20
292.0
 30
0.0
 11
5.0
 21
292.0
 31
0.0
  0
LINE
  5
477
330
46F
100
AcDbEntity
  8
Sketch Geometry(ISO)
100
AcDbLine
 10
4.999999999999982
 20
292.0
 30
0.0
 11
5.000000000000007
 21
5.0
 31
0.0
  0
LINE
  5
478
330
46F
100
AcDbEntity
  8
Sketch Geometry(ISO)
100
AcDbLine
 10
5.000000000000007
 20
5.0
 30
0.0
 11
205.0
 21
5.0
 31
0.0
  0
LINE
  5
479
330
46F
100
AcDbEntity
  8
Sketch Geometry(ISO)
100
AcDbLine
 10
205.0
 20
5.0
 30
0.0
 11
204.9999999999999
 21
292.0
 31
0.0
  0
ENDBLK
  5
471
330
46F
100
AcDbEntity
  8
0
100
AcDbBlockEnd
  0
BLOCK
  5
513
330
512
100
AcDbEntity
  8
0
100
AcDbBlockBegin
  2
*D17
 70
     1
 10
0.0
 20
0.0
 30
0.0
  3
*D17
  1

  0
LINE
  5
5E7
330
512
100
AcDbEntity
  8
Bemaßungen(DIN)
  6
Continuous
 62
     7
370
    25
100
AcDbLine
 10
367.4036624490529
 20
753.1187420401286
 30
0.0
 11
367.4036624490529
 21
824.244767034127
 31
0.0
  0
LINE
  5
5E8
330
512
100
AcDbEntity
  8
Bemaßungen(DIN)
  6
Continuous
 62
     7
370
    25
100
AcDbLine
 10
722.4036624490508
 20
753.1187420401286
 30
0.0
 11
722.4036624490508
 21
824.244767034127
 31
0.0
  0
LINE
  5
5E9
330
512
100
AcDbEntity
  8
Bemaßungen(DIN)
  6
Continuous
 62
     7
370
    25
100
AcDbLine
 10
395.4036624490529
 20
810.244767034127
 30
0.0
 11
509.7234460516408
 21
810.244767034127
 31
0.0
  0
LINE
  5
5EA
330
512
100
AcDbEntity
  8
Bemaßungen(DIN)
  6
Continuous
 62
     7
370
    25
100
AcDbLine
 10
694.4036624490507
 20
810.244767034127
 30
0.0
 11
579.5725578054324
 21
810.244767034127
 31
0.0
  0
SOLID
  5
5EB
330
512
100
AcDbEntity
  8
Bemaßungen(DIN)
  6
Continuous
 62
     7
100
AcDbTrace
 10
395.4036624490529
 20
814.9114337007937
 30
0.0
 11
395.4036624490529
 21
805.5781003674603
 31
0.0
 12
367.4036624490529
 22
810.244767034127
 32
0.0
 13
367.4036624490529
 23
810.244767034127
 33
0.0
  0
SOLID
  5
5EC
330
512
100
AcDbEntity
  8
Bemaßungen(DIN)
  6
Continuous
 62
     7
100
AcDbTrace
 10
694.4036624490507
 20
814.9114337007937
 30
0.0
 11
694.4036624490507
 21
805.5781003674603
 31
0.0
 12
722.4036624490508
 22
810.244767034127
 32
0.0
 13
722.4036624490508
 23
810.244767034127
 33
0.0
  0
MTEXT
  5
5ED
330
512
100
AcDbEntity
  8
Bemaßungen(DIN)
  6
Continuous
 62
     7
370
    30
100
AcDbMText
 10
516.7234460516407
 20
810.244767034127
 30
0.0
 40
28.0
 41
0.0
 71
     4
 72
     1
  1
\A1;355
  7
Text__4.0mm
 73
     1
 44
1.0
  0
POINT
  5
5EE
330
512
100
AcDbEntity
  8
Defpoints
  6
Continuous
 62
     0
100
AcDbPoint
 10
367.4036624490529
 20
739.1187420401286
 30
0.0
  0
POINT
  5
5EF
330
512
100
AcDbEntity
  8
Defpoints
  6
Continuous
 62
     0
100
AcDbPoint
 10
722.4036624490508
 20
739.1187420401286
 30
0.0
  0
POINT
  5
5F0
330
512
100
AcDbEntity
  8
Defpoints
  6
Continuous
 62
     0
100
AcDbPoint
 10
722.4036624490508
 20
810.244767034127
 30
0.0
  0
ENDBLK
  5
514
330
512
100
AcDbEntity
  8
0
100
AcDbBlockEnd
  0
BLOCK
  5
5F3
330
5F2
100
AcDbEntity
  8
0
100
AcDbBlockBegin
  2
*D18
 70
     1
 10
0.0
 20
0.0
 30
0.0
  3
*D18
  1

  0
LINE
  5
6C2
330
5F2
100
AcDbEntity
  8
Bemaßungen(DIN)
  6
Continuous
 62
     7
370
    25
100
AcDbLine
 10
364.5536624490471
 20
741.418742040124
 30
0.0
 11
273.0302374319
 21
741.418742040124
 31
0.0
  0
LINE
  5
6C3
330
5F2
100
AcDbEntity
  8
Bemaßungen(DIN)
  6
Continuous
 62
     7
370
    25
100
AcDbLine
 10
355.7036624490508
 20
586.4187420401286
 30
0.0
 11
273.0302374318999
 21
586.4187420401286
 31
0.0
  0
LINE
  5
6C4
330
5F2
100
AcDbEntity
  8
Bemaßungen(DIN)
  6
Continuous
 62
     7
370
    25
100
AcDbLine
 10
287.0302374319
 20
713.4187420401239
 30
0.0
 11
287.0302374319
 21
685.2147856963338
 31
0.0
  0
LINE
  5
6C5
330
5F2
100
AcDbEntity
  8
Bemaßungen(DIN)
  6
Continuous
 62
     7
370
    25
100
AcDbLine
 10
287.0302374318999
 20
614.4187420401286
 30
0.0
 11
287.0302374319
 21
642.622698383919
 31
0.0
  0
SOLID
  5
6C6
330
5F2
100
AcDbEntity
  8
Bemaßungen(DIN)
  6
Continuous
 62
     7
100
AcDbTrace
 10
282.3635707652333
 20
713.4187420401239
 30
0.0
 11
291.6969040985667
 21
713.4187420401239
 31
0.0
 12
287.0302374319
 22
741.418742040124
 32
0.0
 13
287.0302374319
 23
741.418742040124
 33
0.0
  0
SOLID
  5
6C7
330
5F2
100
AcDbEntity
  8
Bemaßungen(DIN)
  6
Continuous
 62
     7
100
AcDbTrace
 10
282.3635707652332
 20
614.4187420401286
 30
0.0
 11
291.6969040985666
 21
614.4187420401286
 31
0.0
 12
287.0302374318999
 22
586.4187420401286
 32
0.0
 13
287.0302374318999
 23
586.4187420401286
 33
0.0
  0
MTEXT
  5
6C8
330
5F2
100
AcDbEntity
  8
Bemaßungen(DIN)
  6
Continuous
 62
     7
370
    30
100
AcDbMText
 10
260.2831712918876
 20
663.9187420401263
 30
0.0
 40
28.0
 41
0.0
 71
     4
 72
     1
  1
\A1;155
  7
Text__4.0mm
 73
     1
 44
1.0
  0
POINT
  5
6C9
330
5F2
100
AcDbEntity
  8
Defpoints
  6
Continuous
 62
     0
100
AcDbPoint
 10
378.5536624490471
 20
741.418742040124
 30
0.0
  0
POINT
  5
6CA
330
5F2
100
AcDbEntity
  8
Defpoints
  6
Continuous
 62
     0
100
AcDbPoint
 10
369.7036624490508
 20
586.4187420401286
 30
0.0
  0
POINT
  5
6CB
330
5F2
100
AcDbEntity
  8
Defpoints
  6
Continuous
 62
     0
100
AcDbPoint
 10
287.0302374318999
 20
586.4187420401286
 30
0.0
  0
ENDBLK
  5
5F4
330
5F2
100
AcDbEntity
  8
0
100
AcDbBlockEnd
  0
BLOCK
  5
6CE
330
6CD
100
AcDbEntity
  8
0
100
AcDbBlockBegin
  2
*D19
 70
     1
 10
0.0
 20
0.0
 30
0.0
  3
*D19
  1

  0
LINE
  5
7A2
330
6CD
100
AcDbEntity
  8
Bemaßungen(DIN)
  6
Continuous
 62
     7
370
    25
100
AcDbLine
 10
1036.912946289329
 20
1425.595924858957
 30
0.0
 11
1036.912946289329
 21
1495.595924858957
 31
0.0
  0
LINE
  5
7A3
330
6CD
100
AcDbEntity
  8
Bemaßungen(DIN)
  6
Continuous
 62
     7
370
    25
100
AcDbLine
 10
1204.912946289327
 20
1428.895924858957
 30
0.0
 11
1204.912946289327
 21
1495.595924858957
 31
0.0
  0
LINE
  5
7A4
330
6CD
100
AcDbEntity
  8
Bemaßungen(DIN)
  6
Continuous
 62
     7
370
    25
100
AcDbLine
 10
1064.912946289329
 20
1481.595924858957
 30
0.0
 11
1074.589820725757
 21
1481.595924858957
 31
0.0
  0
LINE
  5
7A5
330
6CD
100
AcDbEntity
  8
Bemaßungen(DIN)
  6
Continuous
 62
     7
370
    25
100
AcDbLine
 10
1176.912946289327
 20
1481.595924858957
 30
0.0
 11
1141.946435956218
 21
1481.595924858957
 31
0.0
  0
SOLID
  5
7A6
330
6CD
100
AcDbEntity
  8
Bemaßungen(DIN)
  6
Continuous
 62
     7
100
AcDbTrace
 10
1064.912946289329
 20
1486.262591525624
 30
0.0
 11
1064.912946289329
 21
1476.92925819229
 31
0.0
 12
1036.912946289329
 22
1481.595924858957
 32
0.0
 13
1036.912946289329
 23
1481.595924858957
 33
0.0
  0
SOLID
  5
7A7
330
6CD
100
AcDbEntity
  8
Bemaßungen(DIN)
  6
Continuous
 62
     7
100
AcDbTrace
 10
1176.912946289327
 20
1486.262591525624
 30
0.0
 11
1176.912946289327
 21
1476.92925819229
 31
0.0
 12
1204.912946289327
 22
1481.595924858957
 32
0.0
 13
1204.912946289327
 23
1481.595924858957
 33
0.0
  0
MTEXT
  5
7A8
330
6CD
100
AcDbEntity
  8
Bemaßungen(DIN)
  6
Continuous
 62
     7
370
    30
100
AcDbMText
 10
1081.589820725757
 20
1481.595924858957
 30
0.0
 40
28.0
 41
0.0
 71
     4
 72
     1
  1
\A1;168
  7
Text__4.0mm
 73
     1
 44
1.0
  0
POINT
  5
7A9
330
6CD
100
AcDbEntity
  8
Defpoints
  6
Continuous
 62
     0
100
AcDbPoint
 10
1036.912946289329
 20
1411.595924858957
 30
0.0
  0
POINT
  5
7AA
330
6CD
100
AcDbEntity
  8
Defpoints
  6
Continuous
 62
     0
100
AcDbPoint
 10
1204.912946289327
 20
1414.895924858957
 30
0.0
  0
POINT
  5
7AB
330
6CD
100
AcDbEntity
  8
Defpoints
  6
Continuous
 62
     0
100
AcDbPoint
 10
1204.912946289327
 20
1481.595924858957
 30
0.0
  0
ENDBLK
  5
6CF
330
6CD
100
AcDbEntity
  8
0
100
AcDbBlockEnd
  0
BLOCK
  5
7AE
330
7AD
100
AcDbEntity
  8
0
100
AcDbBlockBegin
  2
*D20
 70
     1
 10
0.0
 20
0.0
 30
0.0
  3
*D20
  1

  0
LINE
  5
87D
330
7AD
100
AcDbEntity
  8
Bemaßungen(DIN)
  6
Continuous
 62
     7
370
    25
100
AcDbLine
 10
698.9036624492034
 20
1360.795924858957
 30
0.0
 11
811.1567176647891
 21
1360.795924858957
 31
0.0
  0
LINE
  5
87E
330
7AD
100
AcDbEntity
  8
Bemaßungen(DIN)
  6
Continuous
 62
     7
370
    25
100
AcDbLine
 10
698.9036624492037
 20
1005.795924858957
 30
0.0
 11
811.156717664789
 21
1005.795924858957
 31
0.0
  0
LINE
  5
87F
330
7AD
100
AcDbEntity
  8
Bemaßungen(DIN)
  6
Continuous
 62
     7
370
    25
100
AcDbLine
 10
797.1567176647891
 20
1332.795924858957
 30
0.0
 11
797.1567176647889
 21
1206.527601104603
 31
0.0
  0
LINE
  5
880
330
7AD
100
AcDbEntity
  8
Bemaßungen(DIN)
  6
Continuous
 62
     7
370
    25
100
AcDbLine
 10
797.1567176647889
 20
1033.795924858957
 30
0.0
 11
797.1567176647889
 21
1163.916414201465
 31
0.0
  0
SOLID
  5
881
330
7AD
100
AcDbEntity
  8
Bemaßungen(DIN)
  6
Continuous
 62
     7
100
AcDbTrace
 10
792.4900509981224
 20
1332.795924858957
 30
0.0
 11
801.8233843314558
 21
1332.795924858957
 31
0.0
 12
797.1567176647891
 22
1360.795924858957
 32
0.0
 13
797.1567176647891
 23
1360.795924858957
 33
0.0
  0
SOLID
  5
882
330
7AD
100
AcDbEntity
  8
Bemaßungen(DIN)
  6
Continuous
 62
     7
100
AcDbTrace
 10
792.4900509981223
 20
1033.795924858957
 30
0.0
 11
801.8233843314556
 21
1033.795924858957
 31
0.0
 12
797.1567176647889
 22
1005.795924858957
 32
0.0
 13
797.1567176647889
 23
1005.795924858957
 33
0.0
  0
MTEXT
  5
883
330
7AD
100
AcDbEntity
  8
Bemaßungen(DIN)
  6
Continuous
 62
     7
370
    30
100
AcDbMText
 10
769.2321617878929
 20
1185.222007653034
 30
0.0
 40
28.0
 41
0.0
 71
     4
 72
     1
  1
\A1;355
  7
Text__4.0mm
 73
     1
 44
1.0
  0
POINT
  5
884
330
7AD
100
AcDbEntity
  8
Defpoints
  6
Continuous
 62
     0
100
AcDbPoint
 10
684.9036624492034
 20
1360.795924858957
 30
0.0
  0
POINT
  5
885
330
7AD
100
AcDbEntity
  8
Defpoints
  6
Continuous
 62
     0
100
AcDbPoint
 10
684.9036624492036
 20
1005.795924858957
 30
0.0
  0
POINT
  5
886
330
7AD
100
AcDbEntity
  8
Defpoints
  6
Continuous
 62
     0
100
AcDbPoint
 10
797.1567176647889
 20
1005.795924858957
 30
0.0
  0
ENDBLK
  5
7AF
330
7AD
100
AcDbEntity
  8
0
100
AcDbBlockEnd
  0
BLOCK
  5
889
330
888
100
AcDbEntity
  8
0
100
AcDbBlockBegin
  2
*D21
 70
     1
 10
0.0
 20
0.0
 30
0.0
  3
*D21
  1

  0
LINE
  5
965
330
888
100
AcDbEntity
  8
Bemaßungen(DIN)
  6
Continuous
 62
     7
370
    25
100
AcDbLine
 10
734.1036624492036
 20
1415.795924858957
 30
0.0
 11
758.0130619380648
 21
1415.795924858957
 31
0.0
  0
LINE
  5
966
330
888
100
AcDbEntity
  8
Bemaßungen(DIN)
  6
Continuous
 62
     7
370
    25
100
AcDbLine
 10
698.9036624492034
 20
1360.795924858957
 30
0.0
 11
758.0130619380648
 21
1360.795924858957
 31
0.0
  0
LINE
  5
967
330
888
100
AcDbEntity
  8
Bemaßungen(DIN)
  6
Continuous
 62
     7
370
    25
100
AcDbLine
 10
744.0130619380648
 20
1332.795924858957
 30
0.0
 11
744.0130619380648
 21
1304.795924858957
 31
0.0
  0
LINE
  5
968
330
888
100
AcDbEntity
  8
Bemaßungen(DIN)
  6
Continuous
 62
     7
370
    25
100
AcDbLine
 10
744.0130619380648
 20
1443.795924858957
 30
0.0
 11
744.0130619380648
 21
1485.875955925624
 31
0.0
  0
LINE
  5
969
330
888
100
AcDbEntity
  8
Bemaßungen(DIN)
  6
Continuous
 62
     7
370
    25
100
AcDbLine
 10
744.0130619380648
 20
1485.875955925624
 30
0.0
 11
772.0130619380649
 21
1485.875955925624
 31
0.0
  0
SOLID
  5
96A
330
888
100
AcDbEntity
  8
Bemaßungen(DIN)
  6
Continuous
 62
     7
100
AcDbTrace
 10
739.3463952713982
 20
1332.795924858957
 30
0.0
 11
748.6797286047314
 21
1332.795924858957
 31
0.0
 12
744.0130619380648
 22
1360.795924858957
 32
0.0
 13
744.0130619380648
 23
1360.795924858957
 33
0.0
  0
SOLID
  5
96B
330
888
100
AcDbEntity
  8
Bemaßungen(DIN)
  6
Continuous
 62
     7
100
AcDbTrace
 10
739.3463952713982
 20
1443.795924858957
 30
0.0
 11
748.6797286047314
 21
1443.795924858957
 31
0.0
 12
744.0130619380648
 22
1415.795924858957
 32
0.0
 13
744.0130619380648
 23
1415.795924858957
 33
0.0
  0
MTEXT
  5
96C
330
888
100
AcDbEntity
  8
Bemaßungen(DIN)
  6
Continuous
 62
     7
370
    30
100
AcDbMText
 10
779.0130619380646
 20
1485.875955925624
 30
0.0
 40
28.0
 41
0.0
 71
     4
 72
     1
  1
\A1;55
  7
Text__4.0mm
 73
     1
 44
1.0
  0
POINT
  5
96D
330
888
100
AcDbEntity
  8
Defpoints
  6
Continuous
 62
     0
100
AcDbPoint
 10
720.1036624492036
 20
1415.795924858957
 30
0.0
  0
POINT
  5
96E
330
888
100
AcDbEntity
  8
Defpoints
  6
Continuous
 62
     0
100
AcDbPoint
 10
684.9036624492034
 20
1360.795924858957
 30
0.0
  0
POINT
  5
96F
330
888
100
AcDbEntity
  8
Defpoints
  6
Continuous
 62
     0
100
AcDbPoint
 10
744.0130619380648
 20
1360.795924858957
 30
0.0
  0
ENDBLK
  5
88A
330
888
100
AcDbEntity
  8
0
100
AcDbBlockEnd
  0
BLOCK
  5
989
330
988
100
AcDbEntity
  8
0
100
AcDbBlockBegin
  2
*D22
 70
     1
 10
0.0
 20
0.0
 30
0.0
  3
*D22
  1

  0
LINE
  5
A58
330
988
100
AcDbEntity
  8
Bemaßungen(DIN)
  6
Continuous
 62
     7
370
    25
100
AcDbLine
 10
1113.412946289331
 20
1415.795924858957
 30
0.0
 11
937.6050869724032
 21
1415.795924858957
 31
0.0
  0
LINE
  5
A59
330
988
100
AcDbEntity
  8
Bemaßungen(DIN)
  6
Continuous
 62
     7
370
    25
100
AcDbLine
 10
1038.212946289327
 20
955.7959248589568
 30
0.0
 11
937.605086972403
 21
955.7959248589568
 31
0.0
  0
LINE
  5
A5A
330
988
100
AcDbEntity
  8
Bemaßungen(DIN)
  6
Continuous
 62
     7
370
    25
100
AcDbLine
 10
951.6050869724033
 20
1387.795924858957
 30
0.0
 11
951.6050869724031
 21
1201.368560742275
 31
0.0
  0
LINE
  5
A5B
330
988
100
AcDbEntity
  8
Bemaßungen(DIN)
  6
Continuous
 62
     7
370
    25
100
AcDbLine
 10
951.6050869724031
 20
983.7959248589569
 30
0.0
 11
951.6050869724031
 21
1158.776473429861
 31
0.0
  0
SOLID
  5
A5C
330
988
100
AcDbEntity
  8
Bemaßungen(DIN)
  6
Continuous
 62
     7
100
AcDbTrace
 10
946.9384203057366
 20
1387.795924858957
 30
0.0
 11
956.2717536390698
 21
1387.795924858957
 31
0.0
 12
951.6050869724033
 22
1415.795924858957
 32
0.0
 13
951.6050869724033
 23
1415.795924858957
 33
0.0
  0
SOLID
  5
A5D
330
988
100
AcDbEntity
  8
Bemaßungen(DIN)
  6
Continuous
 62
     7
100
AcDbTrace
 10
946.9384203057364
 20
983.7959248589569
 30
0.0
 11
956.2717536390698
 21
983.7959248589569
 31
0.0
 12
951.6050869724031
 22
955.7959248589568
 32
0.0
 13
951.6050869724031
 23
955.7959248589568
 33
0.0
  0
MTEXT
  5
A5E
330
988
100
AcDbEntity
  8
Bemaßungen(DIN)
  6
Continuous
 62
     7
370
    30
100
AcDbMText
 10
923.3023592092088
 20
1180.072517086068
 30
0.0
 40
28.0
 41
0.0
 71
     4
 72
     1
  1
\A1;460
  7
Text__4.0mm
 73
     1
 44
1.0
  0
POINT
  5
A5F
330
988
100
AcDbEntity
  8
Defpoints
  6
Continuous
 62
     0
100
AcDbPoint
 10
1127.412946289331
 20
1415.795924858957
 30
0.0
  0
POINT
  5
A60
330
988
100
AcDbEntity
  8
Defpoints
  6
Continuous
 62
     0
100
AcDbPoint
 10
1052.212946289327
 20
955.7959248589568
 30
0.0
  0
POINT
  5
A61
330
988
100
AcDbEntity
  8
Defpoints
  6
Continuous
 62
     0
100
AcDbPoint
 10
951.6050869724031
 20
955.7959248589568
 30
0.0
  0
ENDBLK
  5
98A
330
988
100
AcDbEntity
  8
0
100
AcDbBlockEnd
  0
BLOCK
  5
A65
330
A64
100
AcDbEntity
  8
0
100
AcDbBlockBegin
  2
*D23
 70
     1
 10
0.0
 20
0.0
 30
0.0
  3
*D23
  1

  0
LINE
  5
D2C
330
A64
100
AcDbEntity
  8
Bemaßungen(DIN)
  6
Continuous
 62
     7
370
    25
100
AcDbLine
 10
404.9036624492036
 20
1377.795924858957
 30
0.0
 11
404.9036624492036
 21
1534.825072260369
 31
0.0
  0
LINE
  5
D2D
330
A64
100
AcDbEntity
  8
Bemaßungen(DIN)
  6
Continuous
 62
     7
370
    25
100
AcDbLine
 10
544.9036624492037
 20
1429.795924858957
 30
0.0
 11
544.9036624492037
 21
1534.825072260369
 31
0.0
  0
LINE
  5
D2E
330
A64
100
AcDbEntity
  8
Bemaßungen(DIN)
  6
Continuous
 62
     7
370
    25
100
AcDbLine
 10
432.9036624492036
 20
1520.825072260369
 30
0.0
 11
433.4979245776873
 21
1520.825072260369
 31
0.0
  0
LINE
  5
D2F
330
A64
100
AcDbEntity
  8
Bemaßungen(DIN)
  6
Continuous
 62
     7
370
    25
100
AcDbLine
 10
516.9036624492036
 20
1520.825072260369
 30
0.0
 11
500.7170227585857
 21
1520.825072260369
 31
0.0
  0
SOLID
  5
D30
330
A64
100
AcDbEntity
  8
Bemaßungen(DIN)
  6
Continuous
 62
     7
100
AcDbTrace
 10
376.9036624492037
 20
1525.491738927036
 30
0.0
 11
376.9036624492037
 21
1516.158405593702
 31
0.0
 12
404.9036624492036
 22
1520.825072260369
 32
0.0
 13
404.9036624492036
 23
1520.825072260369
 33
0.0
  0
LINE
  5
D31
330
A64
100
AcDbEntity
  8
Bemaßungen(DIN)
  6
Continuous
 62
     7
370
    25
100
AcDbLine
 10
376.9036624492037
 20
1520.825072260369
 30
0.0
 11
348.9036624492036
 21
1520.825072260369
 31
0.0
  0
LINE
  5
D32
330
A64
100
AcDbEntity
  8
Bemaßungen(DIN)
  6
Continuous
 62
     7
370
    25
100
AcDbLine
 10
404.9036624492036
 20
1520.825072260369
 30
0.0
 11
432.9036624492036
 21
1520.825072260369
 31
0.0
  0
SOLID
  5
D33
330
A64
100
AcDbEntity
  8
Bemaßungen(DIN)
  6
Continuous
 62
     7
100
AcDbTrace
 10
572.9036624492037
 20
1525.491738927036
 30
0.0
 11
572.9036624492037
 21
1516.158405593702
 31
0.0
 12
544.9036624492037
 22
1520.825072260369
 32
0.0
 13
544.9036624492037
 23
1520.825072260369
 33
0.0
  0
LINE
  5
D34
330
A64
100
AcDbEntity
  8
Bemaßungen(DIN)
  6
Continuous
 62
     7
370
    25
100
AcDbLine
 10
572.9036624492037
 20
1520.825072260369
 30
0.0
 11
600.9036624492036
 21
1520.825072260369
 31
0.0
  0
LINE
  5
D35
330
A64
100
AcDbEntity
  8
Bemaßungen(DIN)
  6
Continuous
 62
     7
370
    25
100
AcDbLine
 10
544.9036624492037
 20
1520.825072260369
 30
0.0
 11
516.9036624492036
 21
1520.825072260369
 31
0.0
  0
MTEXT
  5
D36
330
A64
100
AcDbEntity
  8
Bemaßungen(DIN)
  6
Continuous
 62
     7
370
    30
100
AcDbMText
 10
440.4979245776872
 20
1520.825072260369
 30
0.0
 40
28.0
 41
0.0
 71
     4
 72
     1
  1
\A1;140
  7
Text__4.0mm
 73
     1
 44
1.0
  0
POINT
  5
D37
330
A64
100
AcDbEntity
  8
Defpoints
  6
Continuous
 62
     0
100
AcDbPoint
 10
404.9036624492036
 20
1363.795924858957
 30
0.0
  0
POINT
  5
D38
330
A64
100
AcDbEntity
  8
Defpoints
  6
Continuous
 62
     0
100
AcDbPoint
 10
544.9036624492037
 20
1415.795924858957
 30
0.0
  0
POINT
  5
D39
330
A64
100
AcDbEntity
  8
Defpoints
  6
Continuous
 62
     0
100
AcDbPoint
 10
544.9036624492037
 20
1520.825072260369
 30
0.0
  0
ENDBLK
  5
A66
330
A64
100
AcDbEntity
  8
0
100
AcDbBlockEnd
  0
BLOCK
  5
B4D
330
B4C
100
AcDbEntity
  8
0
100
AcDbBlockBegin
  2
*D24
 70
     1
 10
0.0
 20
0.0
 30
0.0
  3
*D24
  1

  0
LINE
  5
D3A
330
B4C
100
AcDbEntity
  8
Bemaßungen(DIN)
  6
Continuous
 62
     7
370
    25
100
AcDbLine
 10
684.9036624492034
 20
1377.795924858957
 30
0.0
 11
684.9036624492034
 21
1534.97980822042
 31
0.0
  0
LINE
  5
D3B
330
B4C
100
AcDbEntity
  8
Bemaßungen(DIN)
  6
Continuous
 62
     7
370
    25
100
AcDbLine
 10
544.9036624492037
 20
1429.795924858957
 30
0.0
 11
544.9036624492037
 21
1534.97980822042
 31
0.0
  0
LINE
  5
D3C
330
B4C
100
AcDbEntity
  8
Bemaßungen(DIN)
  6
Continuous
 62
     7
370
    25
100
AcDbLine
 10
656.9036624492034
 20
1520.97980822042
 30
0.0
 11
651.9395444172117
 21
1520.97980822042
 31
0.0
  0
LINE
  5
D3D
330
B4C
100
AcDbEntity
  8
Bemaßungen(DIN)
  6
Continuous
 62
     7
370
    25
100
AcDbLine
 10
572.9036624492037
 20
1520.97980822042
 30
0.0
 11
584.7204462363134
 21
1520.97980822042
 31
0.0
  0
SOLID
  5
D3E
330
B4C
100
AcDbEntity
  8
Bemaßungen(DIN)
  6
Continuous
 62
     7
100
AcDbTrace
 10
712.9036624492035
 20
1525.646474887087
 30
0.0
 11
712.9036624492035
 21
1516.313141553753
 31
0.0
 12
684.9036624492034
 22
1520.97980822042
 32
0.0
 13
684.9036624492034
 23
1520.97980822042
 33
0.0
  0
LINE
  5
D3F
330
B4C
100
AcDbEntity
  8
Bemaßungen(DIN)
  6
Continuous
 62
     7
370
    25
100
AcDbLine
 10
712.9036624492035
 20
1520.97980822042
 30
0.0
 11
740.9036624492034
 21
1520.97980822042
 31
0.0
  0
LINE
  5
D40
330
B4C
100
AcDbEntity
  8
Bemaßungen(DIN)
  6
Continuous
 62
     7
370
    25
100
AcDbLine
 10
684.9036624492034
 20
1520.97980822042
 30
0.0
 11
656.9036624492034
 21
1520.97980822042
 31
0.0
  0
SOLID
  5
D41
330
B4C
100
AcDbEntity
  8
Bemaßungen(DIN)
  6
Continuous
 62
     7
100
AcDbTrace
 10
516.9036624492036
 20
1525.646474887087
 30
0.0
 11
516.9036624492036
 21
1516.313141553753
 31
0.0
 12
544.9036624492037
 22
1520.97980822042
 32
0.0
 13
544.9036624492037
 23
1520.97980822042
 33
0.0
  0
LINE
  5
D42
330
B4C
100
AcDbEntity
  8
Bemaßungen(DIN)
  6
Continuous
 62
     7
370
    25
100
AcDbLine
 10
516.9036624492036
 20
1520.97980822042
 30
0.0
 11
488.9036624492036
 21
1520.97980822042
 31
0.0
  0
LINE
  5
D43
330
B4C
100
AcDbEntity
  8
Bemaßungen(DIN)
  6
Continuous
 62
     7
370
    25
100
AcDbLine
 10
544.9036624492037
 20
1520.97980822042
 30
0.0
 11
572.9036624492037
 21
1520.97980822042
 31
0.0
  0
MTEXT
  5
D44
330
B4C
100
AcDbEntity
  8
Bemaßungen(DIN)
  6
Continuous
 62
     7
370
    30
100
AcDbMText
 10
591.7204462363133
 20
1520.97980822042
 30
0.0
 40
28.0
 41
0.0
 71
     4
 72
     1
  1
\A1;140
  7
Text__4.0mm
 73
     1
 44
1.0
  0
POINT
  5
D45
330
B4C
100
AcDbEntity
  8
Defpoints
  6
Continuous
 62
     0
100
AcDbPoint
 10
684.9036624492034
 20
1363.795924858957
 30
0.0
  0
POINT
  5
D46
330
B4C
100
AcDbEntity
  8
Defpoints
  6
Continuous
 62
     0
100
AcDbPoint
 10
544.9036624492037
 20
1415.795924858957
 30
0.0
  0
POINT
  5
D47
330
B4C
100
AcDbEntity
  8
Defpoints
  6
Continuous
 62
     0
100
AcDbPoint
 10
544.9036624492037
 20
1520.97980822042
 30
0.0
  0
ENDBLK
  5
B4E
330
B4C
100
AcDbEntity
  8
0
100
AcDbBlockEnd
  0
BLOCK
  5
C35
330
C34
100
AcDbEntity
  8
0
100
AcDbBlockBegin
  2
*D25
 70
     1
 10
0.0
 20
0.0
 30
0.0
  3
*D25
  1

  0
LINE
  5
D12
330
C34
100
AcDbEntity
  8
Bemaßungen(DIN)
  6
Continuous
 62
     7
370
    25
100
AcDbLine
 10
701.9036624492037
 20
1005.795924858957
 30
0.0
 11
862.4910842168256
 21
1005.795924858957
 31
0.0
  0
LINE
  5
D13
330
C34
100
AcDbEntity
  8
Bemaßungen(DIN)
  6
Continuous
 62
     7
370
    25
100
AcDbLine
 10
561.9036624492036
 20
965.1459248589569
 30
0.0
 11
862.4910842168256
 21
965.1459248589567
 31
0.0
  0
LINE
  5
D14
330
C34
100
AcDbEntity
  8
Bemaßungen(DIN)
  6
Continuous
 62
     7
370
    25
100
AcDbLine
 10
848.4910842168256
 20
1033.795924858957
 30
0.0
 11
848.4910842168256
 21
1061.795924858957
 31
0.0
  0
LINE
  5
D15
330
C34
100
AcDbEntity
  8
Bemaßungen(DIN)
  6
Continuous
 62
     7
370
    25
100
AcDbLine
 10
848.4910842168256
 20
937.1459248589568
 30
0.0
 11
848.4910842168256
 21
895.0658941345503
 31
0.0
  0
LINE
  5
D16
330
C34
100
AcDbEntity
  8
Bemaßungen(DIN)
  6
Continuous
 62
     7
370
    25
100
AcDbLine
 10
848.4910842168256
 20
895.0658941345503
 30
0.0
 11
820.4910842168256
 21
895.0658941345503
 31
0.0
  0
SOLID
  5
D17
330
C34
100
AcDbEntity
  8
Bemaßungen(DIN)
  6
Continuous
 62
     7
100
AcDbTrace
 10
843.8244175501589
 20
1033.795924858957
 30
0.0
 11
853.1577508834923
 21
1033.795924858957
 31
0.0
 12
848.4910842168256
 22
1005.795924858957
 32
0.0
 13
848.4910842168256
 23
1005.795924858957
 33
0.0
  0
SOLID
  5
D18
330
C34
100
AcDbEntity
  8
Bemaßungen(DIN)
  6
Continuous
 62
     7
100
AcDbTrace
 10
843.8244175501589
 20
937.1459248589568
 30
0.0
 11
853.1577508834923
 21
937.1459248589568
 31
0.0
 12
848.4910842168256
 22
965.1459248589567
 32
0.0
 13
848.4910842168256
 23
965.1459248589567
 33
0.0
  0
MTEXT
  5
D19
330
C34
100
AcDbEntity
  8
Bemaßungen(DIN)
  6
Continuous
 62
     7
370
    30
100
AcDbMText
 10
781.2433360942914
 20
895.0658941345507
 30
0.0
 40
28.0
 41
0.0
 71
     4
 72
     1
  1
\A1;41
  7
Text__4.0mm
 73
     1
 44
1.0
  0
POINT
  5
D1A
330
C34
100
AcDbEntity
  8
Defpoints
  6
Continuous
 62
     0
100
AcDbPoint
 10
687.9036624492036
 20
1005.795924858957
 30
0.0
  0
POINT
  5
D1B
330
C34
100
AcDbEntity
  8
Defpoints
  6
Continuous
 62
     0
100
AcDbPoint
 10
547.9036624492035
 20
965.1459248589569
 30
0.0
  0
POINT
  5
D1C
330
C34
100
AcDbEntity
  8
Defpoints
  6
Continuous
 62
     0
100
AcDbPoint
 10
848.4910842168256
 20
965.1459248589567
 30
0.0
  0
ENDBLK
  5
C36
330
C34
100
AcDbEntity
  8
0
100
AcDbBlockEnd
  0
ENDSEC
  0
SECTION
  2
ENTITIES
  0
INSERT
  5
45A
330
75
100
AcDbEntity
  8
0
100
AcDbBlockReference
 66
     1
  2
Title Blocks WS-Marketing-FUN
 10
-592.2
 20
-666.9193475916704
 30
0.0
 41
7.0
 42
7.0
 43
7.0
  0
ATTRIB
  5
45C
330
45A
100
AcDbEntity
  8
Symbols(ISO)
 62
     7
100
AcDbText
 10
853.9999999999999
 20
197.7500000000004
 30
0.0
 40
35.0
  1
Waste Bin
  7
Parts-List_2.0mm
 11
853.9999999999999
 21
215.2500000000005
 31
0.0
100
AcDbAttribute
  2
Title
 70
     0
 74
     2
  0
ATTRIB
  5
45D
330
45A
100
AcDbEntity
  8
Symbols(ISO)
 62
     7
100
AcDbText
 10
854.0000000000004
 20
157.5000002086167
 30
0.0
 40
24.49999958276749
  1
RODX605
  7
Parts-List_2.0mm
 11
854.0000000000004
 21
169.7500000000004
 31
0.0
100
AcDbAttribute
  2
Auxiliary_Remark1
 70
     0
 74
     2
  0
ATTRIB
  5
45E
330
45A
100
AcDbEntity
  8
Symbols(ISO)
 62
     7
100
AcDbText
 10
853.9999999999999
 20
112.0000002086168
 30
0.0
 40
24.49999958276749
  1

  7
Parts-List_2.0mm
 11
853.9999999999999
 21
124.2500000000005
 31
0.0
100
AcDbAttribute
  2
Auxiliary_Remark2
 70
     0
 74
     2
  0
ATTRIB
  5
45F
330
45A
100
AcDbEntity
  8
Symbols(ISO)
 62
     7
100
AcDbText
 10
1144.5
 20
311.5000000000005
 30
0.0
 40
17.5
  1

  7
Parts-List_2.0mm
 11
1144.5
 21
320.2500000000005
 31
0.0
100
AcDbAttribute
  2
Part_number
 70
     0
 74
     2
  0
ATTRIB
  5
460
330
45A
100
AcDbEntity
  8
Symbols(ISO)
 62
     7
100
AcDbText
 10
934.4999999999998
 20
45.50000000000003
 30
0.0
 40
35.0
  1
0187-107529
  7
Parts-List_2.0mm
 11
934.4999999999998
 21
63.00000000000003
 31
0.0
100
AcDbAttribute
  2
Document_Number
 70
     0
 74
     2
  0
ATTRIB
  5
461
330
45A
100
AcDbEntity
  8
Symbols(ISO)
 62
     7
100
AcDbText
 10
496.9999999999999
 20
285.249999791384
 30
0.0
 40
14.00000020861625
  1

  7
Parts-List_2.0mm
 11
496.9999999999999
 21
299.2500000000002
 31
0.0
100
AcDbAttribute
  2
Revision_Memo_1
 70
     0
 74
     3
  0
ATTRIB
  5
462
330
45A
100
AcDbEntity
  8
Symbols(ISO)
 62
     7
100
AcDbText
 10
1260.0
 20
45.49999999999965
 30
0.0
 40
35.0
  1
D
  7
Parts-List_2.0mm
 11
1260.0
 21
62.99999999999965
 31
0.0
100
AcDbAttribute
  2
Revision_Index_1
 70
     0
 74
     2
  0
ATTRIB
  5
463
330
45A
100
AcDbEntity
  8
Symbols(ISO)
 62
     7
100
AcDbText
 10
847.0000000000002
 20
45.50000000000003
 30
0.0
 40
35.0
  1
A4
  7
Parts-List_2.0mm
 11
847.0000000000002
 21
63.00000000000003
 31
0.0
100
AcDbAttribute
  2
Sheet_Size
 70
     0
 74
     2
  0
ATTRIB
  5
464
330
45A
100
AcDbEntity
  8
Symbols(ISO)
 62
     7
100
AcDbText
 10
41.99999999999985
 20
313.2499998956923
 30
0.0
 40
14.00000020861625
  1
SW015
  7
Parts-List_2.0mm
 11
41.99999999999985
 21
320.2500000000005
 31
0.0
100
AcDbAttribute
  2
Drawn_By
 70
     0
 74
     2
  0
ATTRIB
  5
465
330
45A
100
AcDbEntity
  8
Symbols(ISO)
 62
     7
100
AcDbText
 10
41.99999999999985
 20
260.7499998956924
 30
0.0
 40
14.00000020861625
  1
SW015
  7
Parts-List_2.0mm
 11
41.99999999999985
 21
267.7500000000005
 31
0.0
100
AcDbAttribute
  2
Modified_By
 70
     0
 74
     2
  0
ATTRIB
  5
466
330
45A
100
AcDbEntity
  8
Symbols(ISO)
 62
     7
100
AcDbText
 10
356.9999999999999
 20
313.2499998956923
 30
0.0
 40
14.00000020861625
  1
30.09.2009
  7
Parts-List_2.0mm
 11
356.9999999999999
 21
320.2500000000005
 31
0.0
100
AcDbAttribute
  2
Drawn_Date
 70
     0
 74
     2
  0
ATTRIB
  5
467
330
45A
100
AcDbEntity
  8
Symbols(ISO)
 62
     7
100
AcDbText
 10
356.9999999999999
 20
260.7499998956924
 30
0.0
 40
14.00000020861625
  1
20.10.2009
  7
Parts-List_2.0mm
 11
356.9999999999999
 21
267.7500000000005
 31
0.0
100
AcDbAttribute
  2
Modified_Date
 70
     0
 74
     2
  0
ATTRIB
  5
468
330
45A
100
AcDbEntity
  8
Symbols(ISO)
 62
     7
100
AcDbText
 10
496.9999999999999
 20
313.2499998956921
 30
0.0
 40
14.00000020861625
  1

  7
Parts-List_2.0mm
 11
496.9999999999999
 21
320.2500000000002
 31
0.0
100
AcDbAttribute
  2
Revision_Titel_1
 70
     0
 74
     2
  0
ATTRIB
  5
469
330
45A
100
AcDbEntity
  8
Symbols(ISO)
 62
     7
100
AcDbText
 10
1337.900068698931
 20
45.49999999999965
 30
0.0
 40
35.0
  1
1 
 41
0.899999976158142
  7
Text__5.0mm
 72
     1
 11
1356.25
 21
62.99999999999965
 31
0.0
100
AcDbAttribute
  2
Sheet_number
 70
     0
 74
     2
  0
ATTRIB
  5
46A
330
45A
100
AcDbEntity
  8
Symbols(ISO)
 62
     7
100
AcDbText
 10
1390.400068698931
 20
45.49999999999965
 30
0.0
 40
35.0
  1
4 
 41
0.899999976158142
  7
Text__5.0mm
 72
     1
 11
1408.75
 21
62.99999999999965
 31
0.0
100
AcDbAttribute
  2
Number_of_sheets
 70
     0
 74
     2
  0
ATTRIB
  5
46B
330
45A
100
AcDbEntity
  8
Symbols(ISO)
 62
     7
100
AcDbText
 10
847.0000000000002
 20
259.0000000000005
 30
0.0
 40
17.5
  1

  7
Parts-List_2.0mm
 11
847.0000000000002
 21
267.7500000000005
 31
0.0
100
AcDbAttribute
  2
FUN
 70
     0
 74
     2
  0
ATTRIB
  5
46C
330
45A
100
AcDbEntity
  8
Symbols(ISO)
 62
     7
100
AcDbText
 10
1144.5
 20
259.0000000000005
 30
0.0
 40
17.5
  1
7612210067167
  7
Parts-List_2.0mm
 11
1144.5
 21
267.7500000000005
 31
0.0
100
AcDbAttribute
  2
EAN
 70
     0
 74
     2
  0
ATTRIB
  5
46D
330
45A
100
AcDbEntity
  8
Symbols(ISO)
 62
     7
100
AcDbText
 10
181.9999999999998
 20
260.7499998956924
 30
0.0
 40
14.00000020861625
  1
FRK-Marketing
  7
Parts-List_2.0mm
 11
181.9999999999998
 21
267.7500000000005
 31
0.0
100
AcDbAttribute
  2
Departement
 70
     0
 74
     2
  0
ATTRIB
  5
46E
330
45A
100
AcDbEntity
  8
Symbols(ISO)
 62
     7
100
AcDbText
 10
181.9999999999998
 20
313.2499998956923
 30
0.0
 40
14.00000020861625
  1
FRK-Marketing
  7
Parts-List_2.0mm
 11
181.9999999999998
 21
320.2500000000005
 31
0.0
100
AcDbAttribute
  2
Departement
 70
     0
 74
     2
  0
SEQEND
  5
45B
330
45A
100
AcDbEntity
  8
0
  0
INSERT
  5
47A
330
75
100
AcDbEntity
  8
0
100
AcDbBlockReference
  2
Borders Verkauf Border_85x80
 10
0.0
 20
0.0
 30
0.0
 41
7.0
 42
7.0
 43
7.0
  0
LINE
  5
47B
330
75
100
AcDbEntity
  8
MaVisibleEdge
100
AcDbLine
 10
369.7036624492037
 20
1414.895924858957
 30
0.0
 11
369.7036624492037
 21
1415.795924858957
 31
0.0
  0
LINE
  5
47C
330
75
100
AcDbEntity
  8
MaVisibleEdge
100
AcDbLine
 10
720.1036624492037
 20
1414.895924858957
 30
0.0
 11
722.4036624492036
 21
1414.895924858957
 31
0.0
  0
LINE
  5
47D
330
75
100
AcDbEntity
  8
MaVisibleEdge
100
AcDbLine
 10
720.1036624492036
 20
1415.795924858957
 30
0.0
 11
720.1036624492036
 21
1414.895924858957
 31
0.0
  0
LINE
  5
47E
330
75
100
AcDbEntity
  8
MaVisibleEdge
100
AcDbLine
 10
367.4036624492036
 20
1414.895924858957
 30
0.0
 11
369.7036624492037
 21
1414.895924858957
 31
0.0
  0
LINE
  5
47F
330
75
100
AcDbEntity
  8
MaVisibleEdge
100
AcDbLine
 10
369.7036624492037
 20
1415.795924858957
 30
0.0
 11
720.1036624492036
 21
1415.795924858957
 31
0.0
  0
LINE
  5
480
330
75
100
AcDbEntity
  8
MaVisibleEdge
100
AcDbLine
 10
378.4936624492037
 20
955.795924858957
 30
0.0
 11
369.7036624492036
 21
955.795924858957
 31
0.0
  0
LINE
  5
481
330
75
100
AcDbEntity
  8
MaVisibleEdge
100
AcDbLine
 10
720.1036624492036
 20
955.795924858957
 30
0.0
 11
711.3136624492036
 21
955.795924858957
 31
0.0
  0
LINE
  5
482
330
75
100
AcDbEntity
  8
MaVisibleEdge
100
AcDbLine
 10
367.4036624492036
 20
955.795924858957
 30
0.0
 11
369.7036624492036
 21
955.7959248589568
 31
0.0
  0
LINE
  5
483
330
75
100
AcDbEntity
  8
MaVisibleEdge
100
AcDbLine
 10
367.4036624492123
 20
1414.895924858957
 30
0.0
 11
367.4036624492035
 21
955.7959248589568
 31
0.0
  0
LINE
  5
484
330
75
100
AcDbEntity
  8
MaVisibleEdge
100
AcDbLine
 10
711.3036624492036
 20
957.1959248589569
 30
0.0
 11
711.3036624492036
 21
955.7959248589568
 31
0.0
  0
LINE
  5
485
330
75
100
AcDbEntity
  8
MaVisibleEdge
100
AcDbLine
 10
378.5036624492037
 20
957.1959248589569
 30
0.0
 11
378.5036624492037
 21
955.7959248589568
 31
0.0
  0
LINE
  5
486
330
75
100
AcDbEntity
  8
MaVisibleEdge
100
AcDbLine
 10
378.5036624492037
 20
957.2059248589569
 30
0.0
 11
378.5036624492037
 21
957.1959248589569
 31
0.0
  0
LINE
  5
487
330
75
100
AcDbEntity
  8
MaVisibleEdge
100
AcDbLine
 10
378.4936624492037
 20
957.2059248589569
 30
0.0
 11
378.5036624492037
 21
957.2059248589569
 31
0.0
  0
LINE
  5
488
330
75
100
AcDbEntity
  8
MaVisibleEdge
100
AcDbLine
 10
378.4936624492037
 20
955.795924858957
 30
0.0
 11
378.4936624492037
 21
957.2059248589569
 31
0.0
  0
LINE
  5
489
330
75
100
AcDbEntity
  8
MaVisibleEdge
100
AcDbLine
 10
711.3136624492036
 20
957.2059248589569
 30
0.0
 11
711.3136624492036
 21
955.795924858957
 31
0.0
  0
LINE
  5
48A
330
75
100
AcDbEntity
  8
MaVisibleEdge
100
AcDbLine
 10
711.3036624492036
 20
957.2059248589569
 30
0.0
 11
711.3136624492036
 21
957.2059248589569
 31
0.0
  0
LINE
  5
48B
330
75
100
AcDbEntity
  8
MaVisibleEdge
100
AcDbLine
 10
711.3036624492036
 20
957.1959248589569
 30
0.0
 11
711.3036624492036
 21
957.2059248589569
 31
0.0
  0
LINE
  5
48C
330
75
100
AcDbEntity
  8
MaVisibleEdge
100
AcDbLine
 10
378.5036624492037
 20
955.795924858957
 30
0.0
 11
711.3036624492036
 21
955.795924858957
 31
0.0
  0
LINE
  5
48D
330
75
100
AcDbEntity
  8
MaVisibleEdge
100
AcDbLine
 10
722.4036624492035
 20
955.795924858957
 30
0.0
 11
720.1036624492036
 21
955.7959248589568
 31
0.0
  0
LINE
  5
48E
330
75
100
AcDbEntity
  8
MaVisibleEdge
100
AcDbLine
 10
722.4036624492036
 20
955.795924858957
 30
0.0
 11
722.4036624492036
 21
1414.895924858957
 31
0.0
  0
ARC
  5
48F
330
75
100
AcDbEntity
  8
MaVisibleEdge
100
AcDbCircle
 10
721.5036624492037
 20
1414.895924858957
 30
0.0
 40
0.8999999999999985
100
AcDbArc
 50
0.0
 51
180.0
  0
ARC
  5
490
330
75
100
AcDbEntity
  8
MaVisibleEdge
100
AcDbCircle
 10
721.5036624492037
 20
1414.895924858957
 30
0.0
 40
0.1000000000000156
100
AcDbArc
 50
0.0
 51
180.0
  0
ARC
  5
491
330
75
100
AcDbEntity
  8
MaVisibleEdge
100
AcDbCircle
 10
368.3036624492036
 20
1414.895924858957
 30
0.0
 40
0.8999999999999985
100
AcDbArc
 50
0.0
 51
180.0
  0
ARC
  5
492
330
75
100
AcDbEntity
  8
MaVisibleEdge
100
AcDbCircle
 10
368.3036624492036
 20
1414.895924858957
 30
0.0
 40
0.1000000000000156
100
AcDbArc
 50
0.0
 51
180.0
  0
LINE
  5
493
330
75
100
AcDbEntity
  8
MaVisibleEdge
100
AcDbLine
 10
369.7036624490508
 20
586.4187420401285
 30
0.0
 11
369.7036624490508
 21
588.2187420401286
 31
0.0
  0
LINE
  5
494
330
75
100
AcDbEntity
  8
MaVisibleEdge
100
AcDbLine
 10
369.7036624490508
 20
588.2187420401286
 30
0.0
 11
720.1036624490505
 21
588.2187420401286
 31
0.0
  0
LINE
  5
495
330
75
100
AcDbEntity
  8
MaVisibleEdge
100
AcDbLine
 10
720.1036624490505
 20
586.4187420401286
 30
0.0
 11
369.7036624490508
 21
586.4187420401286
 31
0.0
  0
ARC
  5
496
330
75
100
AcDbEntity
  8
MaVisibleEdge
100
AcDbCircle
 10
720.1036624490507
 20
588.7187420401285
 30
0.0
 40
1.499999999999983
100
AcDbArc
 50
270.0
 51
0.0
  0
ARC
  5
497
330
75
100
AcDbEntity
  8
MaVisibleEdge
100
AcDbCircle
 10
720.1036624490507
 20
588.7187420401287
 30
0.0
 40
2.300000000000004
100
AcDbArc
 50
270.0000000000031
 51
0.0
  0
LINE
  5
498
330
75
100
AcDbEntity
  8
MaVisibleEdge
100
AcDbLine
 10
720.1036624490505
 20
588.2187420401286
 30
0.0
 11
720.1036624490505
 21
586.4187420401285
 31
0.0
  0
ARC
  5
499
330
75
100
AcDbEntity
  8
MaVisibleEdge
100
AcDbCircle
 10
369.7036624490506
 20
588.7187420401287
 30
0.0
 40
2.300000000000015
100
AcDbArc
 50
180.0
 51
270.0000000000031
  0
ARC
  5
49A
330
75
100
AcDbEntity
  8
MaVisibleEdge
100
AcDbCircle
 10
369.7036624490506
 20
588.7187420401285
 30
0.0
 40
1.499999999999985
100
AcDbArc
 50
180.0
 51
270.0000000000023
  0
LINE
  5
49B
330
75
100
AcDbEntity
  8
MaVisibleEdge
100
AcDbLine
 10
369.2036624490508
 20
739.1187420401286
 30
0.0
 11
369.2036624490508
 21
588.7187420401197
 31
0.0
  0
LINE
  5
49C
330
75
100
AcDbEntity
  8
MaVisibleEdge
100
AcDbLine
 10
369.2036624490507
 20
588.7187420401197
 30
0.0
 11
367.4036624490507
 21
588.7187420401197
 31
0.0
  0
LINE
  5
49D
330
75
100
AcDbEntity
  8
MaVisibleEdge
100
AcDbLine
 10
367.4036624490507
 20
739.1187420401286
 30
0.0
 11
369.2036624490507
 21
739.1187420401286
 31
0.0
  0
LINE
  5
49E
330
75
100
AcDbEntity
  8
MaVisibleEdge
100
AcDbLine
 10
367.4036624490593
 20
588.7187420401197
 30
0.0
 11
367.4036624490529
 21
739.1187420401286
 31
0.0
  0
ARC
  5
49F
330
75
100
AcDbEntity
  8
MaVisibleEdge
100
AcDbCircle
 10
369.7036624490508
 20
739.1187420401284
 30
0.0
 40
2.300000000000039
100
AcDbArc
 50
90.00000000018118
 51
180.0
  0
ARC
  5
4A0
330
75
100
AcDbEntity
  8
MaVisibleEdge
100
AcDbCircle
 10
369.7036624490506
 20
739.1187420401286
 30
0.0
 40
1.499999999999968
100
AcDbArc
 50
90.00000000017811
 51
180.0
  0
LINE
  5
4A1
330
75
100
AcDbEntity
  8
MaVisibleEdge
100
AcDbLine
 10
720.6036624490507
 20
739.1187420401286
 30
0.0
 11
722.4036624490508
 21
739.1187420401286
 31
0.0
  0
ARC
  5
4A2
330
75
100
AcDbEntity
  8
MaVisibleEdge
100
AcDbCircle
 10
720.1036624490507
 20
739.1187420401286
 30
0.0
 40
1.499999999999985
100
AcDbArc
 50
0.0
 51
90.00000000000474
  0
ARC
  5
4A3
330
75
100
AcDbEntity
  8
MaVisibleEdge
100
AcDbCircle
 10
720.1036624490505
 20
739.1187420401286
 30
0.0
 40
2.300000000000039
100
AcDbArc
 50
0.0
 51
90.0
  0
LINE
  5
4A4
330
75
100
AcDbEntity
  8
MaVisibleEdge
100
AcDbLine
 10
720.6036624490507
 20
588.7187420401287
 30
0.0
 11
720.6036624490507
 21
739.1187420401286
 31
0.0
  0
LINE
  5
4A5
330
75
100
AcDbEntity
  8
MaVisibleEdge
100
AcDbLine
 10
722.4036624490508
 20
588.7187420401287
 30
0.0
 11
720.6036624490507
 21
588.7187420401287
 31
0.0
  0
LINE
  5
4A6
330
75
100
AcDbEntity
  8
MaVisibleEdge
100
AcDbLine
 10
722.4036624490508
 20
739.1187420401286
 30
0.0
 11
722.4036624490508
 21
588.7187420401285
 31
0.0
  0
LINE
  5
4A7
330
75
100
AcDbEntity
  8
MaVisibleEdge
100
AcDbLine
 10
369.7036624490436
 20
741.4187420401214
 30
0.0
 11
387.4036624490507
 21
741.4187420401267
 31
0.0
  0
LINE
  5
4A8
330
75
100
AcDbEntity
  8
MaVisibleEdge
100
AcDbLine
 10
369.7036624490436
 20
739.6187420401286
 30
0.0
 11
369.7036624490436
 21
741.4187420401287
 31
0.0
  0
LINE
  5
4A9
330
75
100
AcDbEntity
  8
MaVisibleEdge
100
AcDbLine
 10
387.4036624490507
 20
741.4187420401287
 30
0.0
 11
387.4036624490507
 21
739.6187420401286
 31
0.0
  0
LINE
  5
4AA
330
75
100
AcDbEntity
  8
MaVisibleEdge
100
AcDbLine
 10
387.4036624490507
 20
739.6187420401287
 30
0.0
 11
369.7036624490436
 21
739.6187420401287
 31
0.0
  0
LINE
  5
4AB
330
75
100
AcDbEntity
  8
MaVisibleEdge
100
AcDbLine
 10
702.4036624490507
 20
741.4187420401287
 30
0.0
 11
720.1036624490505
 21
741.4187420401287
 31
0.0
  0
LINE
  5
4AC
330
75
100
AcDbEntity
  8
MaVisibleEdge
100
AcDbLine
 10
720.1036624490505
 20
739.6187420401287
 30
0.0
 11
702.4036624490506
 21
739.6187420401287
 31
0.0
  0
LINE
  5
4AD
330
75
100
AcDbEntity
  8
MaVisibleEdge
100
AcDbLine
 10
720.1036624490577
 20
739.6187420401286
 30
0.0
 11
720.1036624490577
 21
741.4187420401287
 31
0.0
  0
LINE
  5
4AE
330
75
100
AcDbEntity
  8
MaVisibleEdge
100
AcDbLine
 10
702.4036624490507
 20
739.6187420401286
 30
0.0
 11
702.4036624490507
 21
741.4187420401287
 31
0.0
  0
LINE
  5
4AF
330
75
100
AcDbEntity
  8
MaVisibleEdge
100
AcDbLine
 10
386.6036624490507
 20
742.9187420401286
 30
0.0
 11
386.6036624490507
 21
743.7187420401308
 31
0.0
  0
LINE
  5
4B0
330
75
100
AcDbEntity
  8
MaVisibleEdge
100
AcDbLine
 10
387.4036624490507
 20
743.7187420401301
 30
0.0
 11
387.4036624490507
 21
742.9187420401286
 31
0.0
  0
ARC
  5
4B1
330
75
100
AcDbEntity
  8
MaVisibleEdge
100
AcDbCircle
 10
385.1036624490507
 20
742.9187420401285
 30
0.0
 40
1.500000000000003
100
AcDbArc
 50
270.0
 51
0.0
  0
ARC
  5
4B2
330
75
100
AcDbEntity
  8
MaVisibleEdge
100
AcDbCircle
 10
385.1036624490506
 20
742.9187420401286
 30
0.0
 40
2.300000000000131
100
AcDbArc
 50
319.2942931689594
 51
0.0
  0
LINE
  5
4B3
330
75
100
AcDbEntity
  8
MaVisibleEdge
100
AcDbLine
 10
703.2036624490506
 20
742.9187420401352
 30
0.0
 11
703.2036624490506
 21
743.7187420401312
 31
0.0
  0
LINE
  5
4B4
330
75
100
AcDbEntity
  8
MaVisibleEdge
100
AcDbLine
 10
702.4036624490507
 20
743.7187420401312
 30
0.0
 11
702.4036624490506
 21
742.9187420401352
 31
0.0
  0
ARC
  5
4B5
330
75
100
AcDbEntity
  8
MaVisibleEdge
100
AcDbCircle
 10
704.7036624490506
 20
742.9187420401285
 30
0.0
 40
2.29999999999995
100
AcDbArc
 50
180.0
 51
220.7057068310414
  0
ARC
  5
4B6
330
75
100
AcDbEntity
  8
MaVisibleEdge
100
AcDbCircle
 10
704.7036624490506
 20
742.9187420401285
 30
0.0
 40
1.500000000000003
100
AcDbArc
 50
180.0
 51
270.0
  0
LINE
  5
4B7
330
75
100
AcDbEntity
  8
MaVisibleEdge
100
AcDbLine
 10
711.3036624490507
 20
589.6187420401286
 30
0.0
 11
711.3036624490507
 21
589.6287420401286
 31
0.0
  0
LINE
  5
4B8
330
75
100
AcDbEntity
  8
MaVisibleEdge
100
AcDbLine
 10
378.5036624490506
 20
589.6287420401286
 30
0.0
 11
378.5036624490506
 21
589.6187420401286
 31
0.0
  0
LINE
  5
4B9
330
75
100
AcDbEntity
  8
MaVisibleEdge
100
AcDbLine
 10
711.3036624490507
 20
588.2187420401286
 30
0.0
 11
711.3036624490507
 21
589.6187420401286
 31
0.0
  0
LINE
  5
4BA
330
75
100
AcDbEntity
  8
MaVisibleEdge
100
AcDbLine
 10
378.5036624490506
 20
588.2187420401286
 30
0.0
 11
378.5036624490506
 21
589.6187420401286
 31
0.0
  0
LINE
  5
4BB
330
75
100
AcDbEntity
  8
MaVisibleEdge
100
AcDbLine
 10
711.3136624490506
 20
589.6287420401286
 30
0.0
 11
711.3136624490506
 21
588.2187420401286
 31
0.0
  0
LINE
  5
4BC
330
75
100
AcDbEntity
  8
MaVisibleEdge
100
AcDbLine
 10
711.3036624490507
 20
589.6287420401286
 30
0.0
 11
711.3136624490506
 21
589.6287420401286
 31
0.0
  0
LINE
  5
4BD
330
75
100
AcDbEntity
  8
MaVisibleEdge
100
AcDbLine
 10
378.4936624490506
 20
589.6287420401286
 30
0.0
 11
378.5036624490506
 21
589.6287420401286
 31
0.0
  0
LINE
  5
4BE
330
75
100
AcDbEntity
  8
MaVisibleEdge
100
AcDbLine
 10
378.4936624490506
 20
588.2187420401286
 30
0.0
 11
378.4936624490506
 21
589.6287420401286
 31
0.0
  0
LINE
  5
4BF
330
75
100
AcDbEntity
  8
MaVisibleEdge
100
AcDbLine
 10
369.9036624490505
 20
735.1187420401288
 30
0.0
 11
373.9036624490506
 21
739.1187420401287
 31
0.0
  0
LINE
  5
4C0
330
75
100
AcDbEntity
  8
MaVisibleEdge
100
AcDbLine
 10
373.9036624490506
 20
739.1187420401287
 30
0.0
 11
389.7036624490506
 21
739.1187420401286
 31
0.0
  0
ARC
  5
4C1
330
75
100
AcDbEntity
  8
MaVisibleEdge
100
AcDbCircle
 10
389.7036624490509
 20
742.9187420401286
 30
0.0
 40
2.300000000000216
100
AcDbArc
 50
180.0
 51
220.7057068310387
  0
ARC
  5
4C2
330
75
100
AcDbEntity
  8
MaVisibleEdge
100
AcDbCircle
 10
389.7036624490507
 20
742.9187420401286
 30
0.0
 40
1.500000000000029
100
AcDbArc
 50
180.0
 51
269.9999999999976
  0
LINE
  5
4C3
330
75
100
AcDbEntity
  8
MaVisibleEdge
100
AcDbLine
 10
389.7036624490506
 20
739.6187420401287
 30
0.0
 11
389.7036624490506
 21
739.1187420401284
 31
0.0
  0
LINE
  5
4C4
330
75
100
AcDbEntity
  8
MaVisibleEdge
100
AcDbLine
 10
719.9036624490506
 20
591.3187420401285
 30
0.0
 11
716.8036624490508
 21
588.2187420401286
 31
0.0
  0
LINE
  5
4C5
330
75
100
AcDbEntity
  8
MaVisibleEdge
100
AcDbLine
 10
719.9036624490506
 20
591.3187420401285
 30
0.0
 11
719.9036624490506
 21
735.1187420401296
 31
0.0
  0
LINE
  5
4C6
330
75
100
AcDbEntity
  8
MaVisibleEdge
100
AcDbLine
 10
715.9036624490505
 20
739.1187420401289
 30
0.0
 11
719.9036624490506
 21
735.1187420401296
 31
0.0
  0
LINE
  5
4C7
330
75
100
AcDbEntity
  8
MaVisibleEdge
100
AcDbLine
 10
715.9036624490505
 20
739.1187420401289
 30
0.0
 11
700.1036624490507
 21
739.1187420401256
 31
0.0
  0
ARC
  5
4C8
330
75
100
AcDbEntity
  8
MaVisibleEdge
100
AcDbCircle
 10
700.1036624490506
 20
742.9187420401286
 30
0.0
 40
1.500000000000004
100
AcDbArc
 50
270.0
 51
0.0
  0
ARC
  5
4C9
330
75
100
AcDbEntity
  8
MaVisibleEdge
100
AcDbCircle
 10
700.1036624490508
 20
742.9187420401285
 30
0.0
 40
2.299999999999858
100
AcDbArc
 50
319.2942931689566
 51
0.0
  0
LINE
  5
4CA
330
75
100
AcDbEntity
  8
MaVisibleEdge
100
AcDbLine
 10
700.1036624490507
 20
739.1187420401256
 30
0.0
 11
700.1036624490507
 21
739.6187420401287
 31
0.0
  0
LINE
  5
4CB
330
75
100
AcDbEntity
  8
MaVisibleEdge
100
AcDbLine
 10
369.9036624490505
 20
591.3187420401286
 30
0.0
 11
369.9036624490505
 21
735.1187420401288
 31
0.0
  0
LINE
  5
4CC
330
75
100
AcDbEntity
  8
MaVisibleEdge
100
AcDbLine
 10
373.0036624490506
 20
588.2187420401286
 30
0.0
 11
369.9036624490505
 21
591.3187420401286
 31
0.0
  0
CIRCLE
  5
4CD
330
75
100
AcDbEntity
  8
MaVisibleEdge
100
AcDbCircle
 10
564.9026312697771
 20
732.9187493200855
 30
0.0
 40
1.5
  0
CIRCLE
  5
4CE
330
75
100
AcDbEntity
  8
MaVisibleEdge
100
AcDbCircle
 10
524.9026309744618
 20
732.9187420401276
 30
0.0
 40
1.5
  0
LINE
  5
4CF
330
75
100
AcDbEntity
  8
MaVisibleEdge
100
AcDbLine
 10
387.4036624490507
 20
739.6187420401286
 30
0.0
 11
387.4036624490507
 21
741.4187420401287
 31
0.0
  0
LINE
  5
4D0
330
75
100
AcDbEntity
  8
MaVisibleEdge
100
AcDbLine
 10
702.4036624490507
 20
739.6187420401287
 30
0.0
 11
387.4036624490506
 21
739.6187420401287
 31
0.0
  0
LINE
  5
4D1
330
75
100
AcDbEntity
  8
MaVisibleEdge
100
AcDbLine
 10
702.4036624490507
 20
741.4187420401287
 30
0.0
 11
702.4036624490507
 21
739.6187420401286
 31
0.0
  0
LINE
  5
4D2
330
75
100
AcDbEntity
  8
MaVisibleEdge
100
AcDbLine
 10
387.4036624490507
 20
741.4187420401287
 30
0.0
 11
702.4036624490507
 21
741.4187420401287
 31
0.0
  0
LINE
  5
4D3
330
75
100
AcDbEntity
  8
MaVisibleEdge
100
AcDbLine
 10
388.2036624490506
 20
742.9187420401352
 30
0.0
 11
388.2036624490506
 21
743.7187420401296
 31
0.0
  0
LINE
  5
4D4
330
75
100
AcDbEntity
  8
MaVisibleEdge
100
AcDbLine
 10
387.4036624490507
 20
743.7187420401301
 30
0.0
 11
387.4036624490507
 21
742.9187420401352
 31
0.0
  0
LINE
  5
4D5
330
75
100
AcDbEntity
  8
MaVisibleEdge
100
AcDbLine
 10
701.6036624490506
 20
742.9187420401286
 30
0.0
 11
701.6036624490506
 21
743.7187420401312
 31
0.0
  0
LINE
  5
4D6
330
75
100
AcDbEntity
  8
MaVisibleEdge
100
AcDbLine
 10
702.4036624490507
 20
743.7187420401312
 30
0.0
 11
702.4036624490506
 21
742.9187420401286
 31
0.0
  0
LINE
  5
4D7
330
75
100
AcDbEntity
  8
MaVisibleEdge
100
AcDbLine
 10
562.4036624490505
 20
749.4187420401289
 30
0.0
 11
562.4036624490505
 21
746.4187420401288
 31
0.0
  0
LINE
  5
4D8
330
75
100
AcDbEntity
  8
MaVisibleEdge
100
AcDbLine
 10
527.4036624490507
 20
749.4187420401285
 30
0.0
 11
562.4036624490505
 21
749.4187420401289
 31
0.0
  0
LINE
  5
4D9
330
75
100
AcDbEntity
  8
MaVisibleEdge
100
AcDbLine
 10
527.4036624490507
 20
746.4187420401286
 30
0.0
 11
527.4036624490507
 21
749.4187420401285
 31
0.0
  0
LINE
  5
4DA
330
75
100
AcDbEntity
  8
MaVisibleEdge
100
AcDbLine
 10
562.4036624490505
 20
746.4187420401288
 30
0.0
 11
527.4036624490507
 21
746.4187420401286
 31
0.0
  0
LINE
  5
4DB
330
75
100
AcDbEntity
  8
MaVisibleEdge
100
AcDbLine
 10
385.9036624490507
 20
743.7187420401312
 30
0.0
 11
385.9036624490507
 21
754.4187420401286
 31
0.0
  0
LINE
  5
4DC
330
75
100
AcDbEntity
  8
MaVisibleEdge
100
AcDbLine
 10
703.9036624490506
 20
743.7187420401312
 30
0.0
 11
703.9036624490506
 21
754.4187420401286
 31
0.0
  0
LINE
  5
4DD
330
75
100
AcDbEntity
  8
MaVisibleEdge
100
AcDbLine
 10
388.3036624490506
 20
752.1187420401286
 30
0.0
 11
388.3036624490506
 21
752.1087420401286
 31
0.0
  0
LINE
  5
4DE
330
75
100
AcDbEntity
  8
MaVisibleEdge
100
AcDbLine
 10
701.5036624490506
 20
752.1087420401286
 30
0.0
 11
701.5036624490506
 21
752.1187420401286
 31
0.0
  0
LINE
  5
4DF
330
75
100
AcDbEntity
  8
MaVisibleEdge
100
AcDbLine
 10
388.3036624490506
 20
754.4187420401286
 30
0.0
 11
388.3036624490505
 21
752.1187420401286
 31
0.0
  0
LINE
  5
4E0
330
75
100
AcDbEntity
  8
MaVisibleEdge
100
AcDbLine
 10
701.5036624490506
 20
754.4187420401286
 30
0.0
 11
388.3036624490506
 21
754.4187420401286
 31
0.0
  0
LINE
  5
4E1
330
75
100
AcDbEntity
  8
MaVisibleEdge
100
AcDbLine
 10
701.5036624490506
 20
754.4187420401286
 30
0.0
 11
701.5036624490506
 21
752.1187420401286
 31
0.0
  0
LINE
  5
4E2
330
75
100
AcDbEntity
  8
MaVisibleEdge
100
AcDbLine
 10
388.2936624490506
 20
752.1087420401286
 30
0.0
 11
388.2936624490506
 21
754.4187420401286
 31
0.0
  0
LINE
  5
4E3
330
75
100
AcDbEntity
  8
MaVisibleEdge
100
AcDbLine
 10
388.3036624490506
 20
752.1087420401286
 30
0.0
 11
388.2936624490506
 21
752.1087420401286
 31
0.0
  0
LINE
  5
4E4
330
75
100
AcDbEntity
  8
MaVisibleEdge
100
AcDbLine
 10
701.5136624490505
 20
752.1087420401286
 30
0.0
 11
701.5036624490506
 21
752.1087420401286
 31
0.0
  0
LINE
  5
4E5
330
75
100
AcDbEntity
  8
MaVisibleEdge
100
AcDbLine
 10
701.5136624490505
 20
754.4187420401286
 30
0.0
 11
701.5136624490505
 21
752.1087420401286
 31
0.0
  0
LINE
  5
4E6
330
75
100
AcDbEntity
  8
MaVisibleEdge
100
AcDbLine
 10
385.9036624490507
 20
754.4187420401286
 30
0.0
 11
388.2936624490506
 21
754.4187420401286
 31
0.0
  0
LINE
  5
4E7
330
75
100
AcDbEntity
  8
MaVisibleEdge
100
AcDbLine
 10
701.5136624490505
 20
754.4187420401286
 30
0.0
 11
703.9036624490506
 21
754.4187420401286
 31
0.0
  0
LINE
  5
4E8
330
75
100
AcDbEntity
  8
MaVisibleEdge
100
AcDbLine
 10
389.5036624490506
 20
743.7187420401287
 30
0.0
 11
385.9036624490507
 21
743.7187420401312
 31
0.0
  0
LINE
  5
4E9
330
75
100
AcDbEntity
  8
MaVisibleEdge
100
AcDbLine
 10
700.3036624490506
 20
743.7187420401312
 30
0.0
 11
703.9036624490506
 21
743.7187420401312
 31
0.0
  0
LINE
  5
4EA
330
75
100
AcDbEntity
  8
MaVisibleEdge
100
AcDbLine
 10
389.5036624490506
 20
743.7187420401287
 30
0.0
 11
389.5036624490506
 21
741.4321351653967
 31
0.0
  0
LINE
  5
4EB
330
75
100
AcDbEntity
  8
MaVisibleEdge
100
AcDbLine
 10
700.3036624490506
 20
743.7187420401311
 30
0.0
 11
700.3036624490506
 21
741.4321351653967
 31
0.0
  0
ARC
  5
4EC
330
75
100
AcDbEntity
  8
MaVisibleEdge
100
AcDbCircle
 10
564.9036624490507
 20
732.8187420401285
 30
0.0
 40
1.500000000000006
100
AcDbArc
 50
2.501212131933754
 51
178.6803043860615
  0
ARC
  5
4ED
330
75
100
AcDbEntity
  8
MaVisibleEdge
100
AcDbCircle
 10
524.9036624490506
 20
732.8187420401285
 30
0.0
 40
1.500000000000006
100
AcDbArc
 50
2.501285272444922
 51
178.6806556239356
  0
ARC
  5
4EE
330
75
100
AcDbEntity
  8
MaVisibleEdge
100
AcDbCircle
 10
1204.012946289327
 20
1414.895924858957
 30
0.0
 40
0.1
100
AcDbArc
 50
0.0
 51
180.0
  0
ARC
  5
4EF
330
75
100
AcDbEntity
  8
MaVisibleEdge
100
AcDbCircle
 10
1204.012946289327
 20
1414.895924858957
 30
0.0
 40
0.9000000000000001
100
AcDbArc
 50
0.0
 51
180.0
  0
LINE
  5
4F0
330
75
100
AcDbEntity
  8
MaVisibleEdge
100
AcDbLine
 10
1202.612946289336
 20
1414.895924858957
 30
0.0
 11
1204.912946289327
 21
1414.895924858957
 31
0.0
  0
LINE
  5
4F1
330
75
100
AcDbEntity
  8
MaVisibleEdge
100
AcDbLine
 10
1049.912946289334
 20
1414.895924858957
 30
0.0
 11
1049.912946289327
 21
957.2959248589569
 31
0.0
  0
LINE
  5
4F2
330
75
100
AcDbEntity
  8
MaVisibleEdge
100
AcDbLine
 10
1049.912946289327
 20
955.795924858957
 30
0.0
 11
1052.212946289327
 21
955.7959248589568
 31
0.0
  0
LINE
  5
4F3
330
75
100
AcDbEntity
  8
MaVisibleEdge
100
AcDbLine
 10
1049.912946289327
 20
957.2959248589569
 30
0.0
 11
1049.912946289327
 21
955.795924858957
 31
0.0
  0
LINE
  5
4F4
330
75
100
AcDbEntity
  8
MaVisibleEdge
100
AcDbLine
 10
1202.612946289327
 20
955.795924858957
 30
0.0
 11
1204.912946289327
 21
955.7959248589568
 31
0.0
  0
LINE
  5
4F5
330
75
100
AcDbEntity
  8
MaVisibleEdge
100
AcDbLine
 10
1204.912946289327
 20
1414.895924858957
 30
0.0
 11
1204.912946289327
 21
955.7959248589568
 31
0.0
  0
LINE
  5
4F6
330
75
100
AcDbEntity
  8
MaVisibleEdge
100
AcDbLine
 10
1052.212946289327
 20
955.795924858957
 30
0.0
 11
1202.612946289327
 21
955.795924858957
 31
0.0
  0
ARC
  5
4F7
330
75
100
AcDbEntity
  8
MaVisibleEdge
100
AcDbCircle
 10
1050.812946289327
 20
1414.895924858957
 30
0.0
 40
0.8999999999999985
100
AcDbArc
 50
0.0
 51
180.0
  0
ARC
  5
4F8
330
75
100
AcDbEntity
  8
MaVisibleEdge
100
AcDbCircle
 10
1050.812946289327
 20
1414.895924858957
 30
0.0
 40
0.0999999999999979
100
AcDbArc
 50
0.0
 51
180.0
  0
LINE
  5
4F9
330
75
100
AcDbEntity
  8
MaVisibleEdge
100
AcDbLine
 10
1048.412946289327
 20
1411.595924858957
 30
0.0
 11
1047.612946289324
 21
1411.595924858957
 31
0.0
  0
LINE
  5
4FA
330
75
100
AcDbEntity
  8
MaVisibleEdge
100
AcDbLine
 10
1036.912946289327
 20
976.995924858957
 30
0.0
 11
1036.912946289329
 21
1411.595924858957
 31
0.0
  0
LINE
  5
4FB
330
75
100
AcDbEntity
  8
MaVisibleEdge
100
AcDbLine
 10
1048.41294628932
 20
976.9959248589572
 30
0.0
 11
1036.912946289327
 21
976.995924858957
 31
0.0
  0
LINE
  5
4FC
330
75
100
AcDbEntity
  8
MaVisibleEdge
100
AcDbLine
 10
1049.912946289327
 20
1411.595924858957
 30
0.0
 11
1048.412946289327
 21
1411.595924858957
 31
0.0
  0
LINE
  5
4FD
330
75
100
AcDbEntity
  8
MaVisibleEdge
100
AcDbLine
 10
1049.912946289327
 20
976.995924858957
 30
0.0
 11
1048.41294628932
 21
976.995924858957
 31
0.0
  0
LINE
  5
4FE
330
75
100
AcDbEntity
  8
MaVisibleEdge
100
AcDbLine
 10
1202.612946289336
 20
1415.795924858957
 30
0.0
 11
1202.612946289336
 21
1414.895924858957
 31
0.0
  0
LINE
  5
4FF
330
75
100
AcDbEntity
  8
MaVisibleEdge
100
AcDbLine
 10
1052.212946289327
 20
1414.895924858957
 30
0.0
 11
1052.212946289327
 21
1415.795924858957
 31
0.0
  0
LINE
  5
500
330
75
100
AcDbEntity
  8
MaVisibleEdge
100
AcDbLine
 10
1049.912946289327
 20
1414.895924858957
 30
0.0
 11
1052.212946289327
 21
1414.895924858957
 31
0.0
  0
LINE
  5
501
330
75
100
AcDbEntity
  8
MaVisibleEdge
100
AcDbLine
 10
1052.212946289327
 20
1415.795924858957
 30
0.0
 11
1202.612946289336
 21
1415.795924858957
 31
0.0
  0
LINE
  5
502
330
75
100
AcDbEntity
  8
MaVisibleEdge
100
AcDbLine
 10
1047.612946289324
 20
1411.595924858957
 30
0.0
 11
1036.912946289327
 21
1411.595924858957
 31
0.0
  0
LINE
  5
503
330
75
100
AcDbEntity
  8
MaVisibleEdge
100
AcDbLine
 10
1047.612946289324
 20
1412.395924858957
 30
0.0
 11
1047.612946289324
 21
1411.595924858957
 31
0.0
  0
LINE
  5
504
330
75
100
AcDbEntity
  8
MaVisibleEdge
100
AcDbLine
 10
1047.612946289324
 20
1412.395924858957
 30
0.0
 11
1036.912946289327
 21
1412.395924858957
 31
0.0
  0
LINE
  5
505
330
75
100
AcDbEntity
  8
MaVisibleEdge
100
AcDbLine
 10
1036.912946289327
 20
1412.395924858957
 30
0.0
 11
1036.912946289327
 21
1411.595924858957
 31
0.0
  0
ARC
  5
506
330
75
100
AcDbEntity
  8
MaVisibleEdge
100
AcDbCircle
 10
1047.612946289327
 20
1410.095924858957
 30
0.0
 40
2.299999999999998
100
AcDbArc
 50
40.70570683104168
 51
90.00000000000616
  0
LINE
  5
507
330
75
100
AcDbEntity
  8
MaVisibleEdge
100
AcDbLine
 10
1036.912946289327
 20
957.6959248589568
 30
0.0
 11
1036.912946289327
 21
960.6959248589568
 31
0.0
  0
LINE
  5
508
330
75
100
AcDbEntity
  8
MaVisibleEdge
100
AcDbLine
 10
1036.912946289327
 20
957.6959248589568
 30
0.0
 11
1037.712946289327
 21
957.6959248589568
 31
0.0
  0
LINE
  5
509
330
75
100
AcDbEntity
  8
MaVisibleEdge
100
AcDbLine
 10
1037.712946289327
 20
960.6959248589568
 30
0.0
 11
1037.712946289327
 21
957.6959248589568
 31
0.0
  0
LINE
  5
50A
330
75
100
AcDbEntity
  8
MaVisibleEdge
100
AcDbLine
 10
1036.912946289327
 20
960.6959248589568
 30
0.0
 11
1036.912946289327
 21
972.3959248589569
 31
0.0
  0
LINE
  5
50B
330
75
100
AcDbEntity
  8
MaVisibleEdge
100
AcDbLine
 10
1037.712946289327
 20
972.3959248589569
 30
0.0
 11
1037.712946289327
 21
960.6959248589568
 31
0.0
  0
ARC
  5
50C
330
75
100
AcDbEntity
  8
MaVisibleEdge
100
AcDbCircle
 10
1039.212946289327
 20
972.3959248589569
 30
0.0
 40
1.500000000000007
100
AcDbArc
 50
90.0
 51
180.0
  0
ARC
  5
50D
330
75
100
AcDbEntity
  8
MaVisibleEdge
100
AcDbCircle
 10
1039.212946289327
 20
972.3959248589569
 30
0.0
 40
2.300000000000004
100
AcDbArc
 50
90.0
 51
180.0
  0
LINE
  5
50E
330
75
100
AcDbEntity
  8
MaVisibleEdge
100
AcDbLine
 10
1039.212946289327
 20
973.8959248589567
 30
0.0
 11
1049.912946289327
 21
973.8959248589567
 31
0.0
  0
LINE
  5
50F
330
75
100
AcDbEntity
  8
MaVisibleEdge
100
AcDbLine
 10
1039.212946289327
 20
974.6959248589568
 30
0.0
 11
1049.912946289327
 21
974.6959248589568
 31
0.0
  0
DIMENSION
  5
510
330
75
100
AcDbEntity
  8
Bemaßungen(DIN)
  6
Continuous
 62
     7
370
    30
100
AcDbDimension
  2
*D17
 10
722.4036624490508
 20
810.244767034127
 30
0.0
 11
544.6480019285366
 21
810.244767034127
 31
0.0
 70
   160
  1
<>
 71
     4
 42
354.9999999999979
  3
MarketingDrawing
100
AcDbAlignedDimension
 13
367.4036624490529
 23
739.1187420401286
 33
0.0
 14
722.4036624490508
 24
739.1187420401286
 34
0.0
100
AcDbRotatedDimension
1001
ACAD
1000
DSTYLE
1002
{
1070
   289
1070
     2
1070
    73
1070
     0
1070
    74
1070
     0
1070
   271
1070
     0
1070
   272
1070
     4
1070
    48
1040
0.0
1070
    47
1040
0.0
1002
}
  0
DIMENSION
  5
5F1
330
75
100
AcDbEntity
  8
Bemaßungen(DIN)
  6
Continuous
 62
     7
370
    30
100
AcDbDimension
  2
*D18
 10
287.0302374318999
 20
586.4187420401286
 30
0.0
 11
287.0302374318999
 21
663.9187420401263
 31
0.0
 70
   160
  1
<>
 71
     4
 42
154.9999999999953
  3
MarketingDrawing
100
AcDbAlignedDimension
 13
378.5536624490471
 23
741.418742040124
 33
0.0
 14
369.7036624490508
 24
586.4187420401286
 34
0.0
 50
90.0
100
AcDbRotatedDimension
1001
ACAD
1000
DSTYLE
1002
{
1070
   289
1070
     2
1070
   271
1070
     0
1070
   272
1070
     4
1070
    48
1040
0.0
1070
    47
1040
0.0
1002
}
  0
DIMENSION
  5
6CC
330
75
100
AcDbEntity
  8
Bemaßungen(DIN)
  6
Continuous
 62
     7
370
    30
100
AcDbDimension
  2
*D19
 10
1204.912946289327
 20
1481.595924858957
 30
0.0
 11
1108.268128340988
 21
1481.595924858957
 31
0.0
 70
   160
  1
<>
 71
     4
 42
167.9999999999982
  3
MarketingDrawing
100
AcDbAlignedDimension
 13
1036.912946289329
 23
1411.595924858957
 33
0.0
 14
1204.912946289327
 24
1414.895924858957
 34
0.0
 50
180.0
100
AcDbRotatedDimension
1001
ACAD
1000
DSTYLE
1002
{
1070
   289
1070
     2
1070
    73
1070
     0
1070
    74
1070
     0
1070
   271
1070
     0
1070
   272
1070
     4
1070
    48
1040
0.0
1070
    47
1040
0.0
1002
}
  0
DIMENSION
  5
7AC
330
75
100
AcDbEntity
  8
Bemaßungen(DIN)
  6
Continuous
 62
     7
370
    30
100
AcDbDimension
  2
*D20
 10
797.1567176647889
 20
1005.795924858957
 30
0.0
 11
797.1567176647888
 21
1185.222007653034
 31
0.0
 70
   160
  1
<>
 71
     4
 42
355.0
  3
MarketingDrawing
100
AcDbAlignedDimension
 13
684.9036624492034
 23
1360.795924858957
 33
0.0
 14
684.9036624492036
 24
1005.795924858957
 34
0.0
 50
90.0
100
AcDbRotatedDimension
1001
ACAD
1000
DSTYLE
1002
{
1070
   289
1070
     2
1070
   271
1070
     0
1070
   272
1070
     4
1070
    48
1040
0.0
1070
    47
1040
0.0
1002
}
  0
DIMENSION
  5
887
330
75
100
AcDbEntity
  8
Bemaßungen(DIN)
  6
Continuous
 62
     7
370
    30
100
AcDbDimension
  2
*D21
 10
744.0130619380648
 20
1360.795924858957
 30
0.0
 11
797.1567176647888
 21
1485.875955925624
 31
0.0
 70
   160
  1
<>
 71
     4
 42
54.99999999999977
  3
MarketingDrawing
100
AcDbAlignedDimension
 13
720.1036624492036
 23
1415.795924858957
 33
0.0
 14
684.9036624492034
 24
1360.795924858957
 34
0.0
 50
270.0
100
AcDbRotatedDimension
1001
ACAD
1000
DSTYLE
1002
{
1070
   289
1070
     2
1070
   271
1070
     0
1070
   272
1070
     4
1070
    48
1040
0.0
1070
    47
1040
0.0
1002
}
  0
LINE
  5
970
330
75
100
AcDbEntity
  8
Hidden Tangent Edges(ISO)
 48
0.006888504140079
100
AcDbLine
 10
401.9010327070996
 20
1360.794658546867
 30
0.0
 11
401.9267163407634
 21
1360.794658546867
 31
0.0
  0
LINE
  5
971
330
75
100
AcDbEntity
  8
Hidden Tangent Edges(ISO)
 48
2.506712198257446
100
AcDbLine
 10
401.9010327070996
 20
1360.794658546867
 30
0.0
 11
401.9010327070996
 21
1351.581808104432
 31
0.0
  0
LINE
  5
972
330
75
100
AcDbEntity
  8
Hidden Tangent Edges(ISO)
 48
2.508391141891479
100
AcDbLine
 10
407.9029696353422
 20
1360.794658546867
 30
0.0
 11
407.9029696353422
 21
1351.575637755116
 31
0.0
  0
ARC
  5
973
330
75
100
AcDbEntity
  8
Hidden Tangent Edges(ISO)
 48
2.554227828979492
100
AcDbCircle
 10
404.9148429880528
 20
1360.794658546867
 30
0.0
 40
2.988126647289419
100
AcDbArc
 50
0.0
 51
180.0
  0
ARC
  5
974
330
75
100
AcDbEntity
  8
Hidden Tangent Edges(ISO)
 48
11.10823440551758
100
AcDbCircle
 10
404.8949569244019
 20
1344.726740497752
 30
0.0
 40
7.480343181372406
100
AcDbArc
 50
113.5931132056356
 51
66.2890798751587
  0
LINE
  5
975
330
75
100
AcDbEntity
  8
Hidden Tangent Edges(ISO)
 48
0.006888504140079
100
AcDbLine
 10
401.8881908902677
 20
1005.90784865285
 30
0.0
 11
401.9138745239315
 21
1005.90784865285
 31
0.0
  0
LINE
  5
976
330
75
100
AcDbEntity
  8
Hidden Tangent Edges(ISO)
 48
2.506712198257446
100
AcDbLine
 10
401.8881908902677
 20
1005.90784865285
 30
0.0
 11
401.8881908902677
 21
996.6949982104146
 31
0.0
  0
LINE
  5
977
330
75
100
AcDbEntity
  8
Hidden Tangent Edges(ISO)
 48
2.508391141891479
100
AcDbLine
 10
407.8901278185103
 20
1005.90784865285
 30
0.0
 11
407.8901278185103
 21
996.6888278610984
 31
0.0
  0
ARC
  5
978
330
75
100
AcDbEntity
  8
Hidden Tangent Edges(ISO)
 48
2.554227828979492
100
AcDbCircle
 10
404.9020011712209
 20
1005.90784865285
 30
0.0
 40
2.988126647289419
100
AcDbArc
 50
0.0
 51
180.0
  0
ARC
  5
979
330
75
100
AcDbEntity
  8
Hidden Tangent Edges(ISO)
 48
11.10823440551758
100
AcDbCircle
 10
404.88211510757
 20
989.8399306037346
 30
0.0
 40
7.480343181372406
100
AcDbArc
 50
113.5931132056352
 51
66.28907987515903
  0
LINE
  5
97A
330
75
100
AcDbEntity
  8
Hidden Tangent Edges(ISO)
 48
0.0033942521549761
100
AcDbLine
 10
407.8901278185103
 20
1005.871283513718
 30
0.0
 11
407.9029696353422
 21
1005.871283513718
 31
0.0
  0
ARC
  5
97B
330
75
100
AcDbEntity
  8
Hidden Tangent Edges(ISO)
 48
2.554227828979492
100
AcDbCircle
 10
684.9057882915803
 20
1005.84325764085
 30
0.0
 40
2.988126647289419
100
AcDbArc
 50
0.0
 51
180.0
  0
LINE
  5
97C
330
75
100
AcDbEntity
  8
Hidden Tangent Edges(ISO)
 48
0.006888504140079
100
AcDbLine
 10
681.8919780106272
 20
1005.84325764085
 30
0.0
 11
681.9176616442909
 21
1005.84325764085
 31
0.0
  0
LINE
  5
97D
330
75
100
AcDbEntity
  8
Hidden Tangent Edges(ISO)
 48
0.0033942521549761
100
AcDbLine
 10
687.8939149388697
 20
1005.806692501718
 30
0.0
 11
687.9067567557016
 21
1005.806692501718
 31
0.0
  0
LINE
  5
97E
330
75
100
AcDbEntity
  8
Hidden Tangent Edges(ISO)
 48
2.508391141891479
100
AcDbLine
 10
687.8939149388697
 20
1005.84325764085
 30
0.0
 11
687.8939149388697
 21
996.6242368490982
 31
0.0
  0
LINE
  5
97F
330
75
100
AcDbEntity
  8
Hidden Tangent Edges(ISO)
 48
2.506712198257446
100
AcDbLine
 10
681.8919780106272
 20
1005.84325764085
 30
0.0
 11
681.8919780106272
 21
996.6304071984147
 31
0.0
  0
ARC
  5
980
330
75
100
AcDbEntity
  8
Hidden Tangent Edges(ISO)
 48
11.10823440551758
100
AcDbCircle
 10
684.8859022279295
 20
989.7753395917346
 30
0.0
 40
7.480343181372406
100
AcDbArc
 50
113.5931132056348
 51
66.28907987515903
  0
ARC
  5
981
330
75
100
AcDbEntity
  8
Hidden Tangent Edges(ISO)
 48
2.554227828979492
100
AcDbCircle
 10
684.9109485135934
 20
1360.853022374826
 30
0.0
 40
2.988126647289419
100
AcDbArc
 50
0.0
 51
180.0
  0
LINE
  5
982
330
75
100
AcDbEntity
  8
Hidden Tangent Edges(ISO)
 48
0.006888504140079
100
AcDbLine
 10
681.8971382326403
 20
1360.853022374826
 30
0.0
 11
681.922821866304
 21
1360.853022374826
 31
0.0
  0
LINE
  5
983
330
75
100
AcDbEntity
  8
Hidden Tangent Edges(ISO)
 48
0.0033942521549761
100
AcDbLine
 10
687.8990751608828
 20
1360.816457235694
 30
0.0
 11
687.9119169777148
 21
1360.816457235694
 31
0.0
  0
LINE
  5
984
330
75
100
AcDbEntity
  8
Hidden Tangent Edges(ISO)
 48
2.508391141891479
100
AcDbLine
 10
687.8990751608828
 20
1360.853022374826
 30
0.0
 11
687.8990751608828
 21
1351.634001583074
 31
0.0
  0
LINE
  5
985
330
75
100
AcDbEntity
  8
Hidden Tangent Edges(ISO)
 48
2.506712198257446
100
AcDbLine
 10
681.8971382326403
 20
1360.853022374826
 30
0.0
 11
681.8971382326403
 21
1351.640171932391
 31
0.0
  0
ARC
  5
986
330
75
100
AcDbEntity
  8
Hidden Tangent Edges(ISO)
 48
11.10823440551758
100
AcDbCircle
 10
684.8910624499426
 20
1344.78510432571
 30
0.0
 40
7.480343181372406
100
AcDbArc
 50
113.5931132056352
 51
66.2890798751587
  0
DIMENSION
  5
987
330
75
100
AcDbEntity
  8
Bemaßungen(DIN)
  6
Continuous
 62
     7
370
    30
100
AcDbDimension
  2
*D22
 10
951.6050869724031
 20
955.7959248589568
 30
0.0
 11
951.6050869724029
 21
1180.072517086068
 31
0.0
 70
   160
  1
<>
 71
     4
 42
459.9999999999998
  3
MarketingDrawing
100
AcDbAlignedDimension
 13
1127.412946289331
 23
1415.795924858957
 33
0.0
 14
1052.212946289327
 24
955.7959248589568
 34
0.0
 50
270.0
100
AcDbRotatedDimension
1001
ACAD
1000
DSTYLE
1002
{
1070
   289
1070
     2
1070
   271
1070
     0
1070
   272
1070
     4
1070
    48
1040
0.0
1070
    47
1040
0.0
1002
}
  0
CIRCLE
  5
A62
330
75
100
AcDbEntity
  8
Hidden Tangent Edges(ISO)
 48
5.097946166992187
100
AcDbCircle
 10
544.851182123342
 20
965.0916687204347
 30
0.0
 40
2.981920859553124
  0
DIMENSION
  5
A63
330
75
100
AcDbEntity
  8
Bemaßungen(DIN)
  6
Continuous
 62
     7
370
    30
100
AcDbDimension
  2
*D23
 10
544.9036624492037
 20
1520.825072260369
 30
0.0
 11
467.1074736681364
 21
1520.825072260369
 31
0.0
 70
   160
  1
<>
 71
     4
 42
140.0
  3
MarketingDrawing
100
AcDbAlignedDimension
 13
404.9036624492036
 23
1363.795924858957
 33
0.0
 14
544.9036624492037
 24
1415.795924858957
 34
0.0
 50
180.0
100
AcDbRotatedDimension
1001
ACAD
1000
DSTYLE
1002
{
1070
   289
1070
     2
1070
    73
1070
     0
1070
    74
1070
     0
1070
   271
1070
     0
1070
   272
1070
     4
1070
    48
1040
0.0
1070
    47
1040
0.0
1002
}
1001
ACAD_DSTYLE_DIMFLIPARROW_WHICH_SYMBOL
1070
   386
1070
     3
  0
DIMENSION
  5
B4B
330
75
100
AcDbEntity
  8
Bemaßungen(DIN)
  6
Continuous
 62
     7
370
    30
100
AcDbDimension
  2
*D24
 10
544.9036624492037
 20
1520.97980822042
 30
0.0
 11
618.3299953267625
 21
1520.97980822042
 31
0.0
 70
   160
  1
<>
 71
     4
 42
139.9999999999997
  3
MarketingDrawing
100
AcDbAlignedDimension
 13
684.9036624492034
 23
1363.795924858957
 33
0.0
 14
544.9036624492037
 24
1415.795924858957
 34
0.0
 50
180.0
100
AcDbRotatedDimension
1001
ACAD
1000
DSTYLE
1002
{
1070
   289
1070
     2
1070
    73
1070
     0
1070
    74
1070
     0
1070
   271
1070
     0
1070
   272
1070
     4
1070
    48
1040
0.0
1070
    47
1040
0.0
1002
}
1001
ACAD_DSTYLE_DIMFLIPARROW_WHICH_SYMBOL
1070
   386
1070
     3
  0
DIMENSION
  5
C33
330
75
100
AcDbEntity
  8
Bemaßungen(DIN)
  6
Continuous
 62
     7
370
    30
100
AcDbDimension
  2
*D25
 10
848.4910842168256
 20
965.1459248589567
 30
0.0
 11
797.3672101555584
 21
895.0658941345507
 31
0.0
 70
   160
  1
<>
 71
     4
 42
40.65000000000032
  3
MarketingDrawing
100
AcDbAlignedDimension
 13
687.9036624492036
 23
1005.795924858957
 33
0.0
 14
547.9036624492035
 24
965.1459248589569
 34
0.0
 50
90.0
100
AcDbRotatedDimension
1001
ACAD
1000
DSTYLE
1002
{
1070
   289
1070
     2
1070
   271
1070
     0
1070
   272
1070
     4
1070
    48
1040
0.0
1070
    47
1040
0.0
1002
}
  0
ENDSEC
  0
SECTION
  2
OBJECTS
  0
DICTIONARY
  5
C
330
0
100
AcDbDictionary
281
     1
  3
ACAD_COLOR
350
6B
  3
ACAD_GROUP
350
D
  3
ACAD_LAYOUT
350
6A
  3
ACAD_MATERIAL
350
10
  3
ACAD_MLEADERSTYLE
350
6E
  3
ACAD_MLINESTYLE
350
67
  3
ACAD_PLOTSETTINGS
350
69
  3
ACAD_PLOTSTYLENAME
350
E
  3
ACAD_SCALELIST
350
3A
  3
ACAD_TABLESTYLE
350
6C
  3
ACAD_VISUALSTYLE
350
29
  3
ACDB_RECOMPOSE_DATA
350
D26
  3
AcDbVariableDictionary
350
D1D
  0
DICTIONARY
  5
6B
102
{ACAD_REACTORS
330
C
102
}
330
C
100
AcDbDictionary
281
     1
  0
DICTIONARY
  5
D
102
{ACAD_REACTORS
330
C
102
}
330
C
100
AcDbDictionary
281
     1
  0
DICTIONARY
  5
6A
102
{ACAD_REACTORS
330
C
102
}
330
C
100
AcDbDictionary
281
     1
  3
Layout1
350
74
  3
Layout2
350
7C
  3
Model
350
78
  0
DICTIONARY
  5
10
102
{ACAD_REACTORS
330
C
102
}
330
C
100
AcDbDictionary
281
     1
  3
ByBlock
350
19
  3
ByLayer
350
11
  3
Global
350
21
  0
DICTIONARY
  5
6E
102
{ACAD_REACTORS
330
C
102
}
330
C
100
AcDbDictionary
281
     1
  3
Standard
350
6F
  0
DICTIONARY
  5
67
102
{ACAD_REACTORS
330
C
102
}
330
C
100
AcDbDictionary
281
     1
  3
Standard
350
68
  0
DICTIONARY
  5
69
102
{ACAD_REACTORS
330
C
102
}
330
C
100
AcDbDictionary
281
     1
  0
ACDBDICTIONARYWDFLT
  5
E
102
{ACAD_REACTORS
330
C
102
}
330
C
100
AcDbDictionary
281
     1
  3
Normal
350
F
100
AcDbDictionaryWithDefault
340
F
  0
DICTIONARY
  5
3A
102
{ACAD_REACTORS
330
C
102
}
330
C
100
AcDbDictionary
281
     1
  3
A0
350
3B
  3
A1
350
3C
  3
A2
350
3D
  3
A3
350
3E
  3
A4
350
3F
  3
A5
350
40
  3
A6
350
41
  3
A7
350
42
  3
A8
350
43
  3
A9
350
44
  3
B0
350
45
  3
B1
350
46
  3
B2
350
47
  3
B3
350
48
  3
B4
350
49
  3
B5
350
4A
  3
B6
350
4B
  3
B7
350
4C
  3
B8
350
4D
  3
B9
350
4E
  3
C0
350
4F
  3
C1
350
50
  3
C2
350
51
  3
C3
350
52
  3
C4
350
53
  3
C5
350
54
  3
C6
350
55
  3
C7
350
56
  3
C8
350
57
  3
C9
350
58
  3
D0
350
59
  3
D1
350
5A
  3
D2
350
5B
  0
DICTIONARY
  5
6C
102
{ACAD_REACTORS
330
C
102
}
330
C
100
AcDbDictionary
281
     1
  3
Standard
350
6D
  0
DICTIONARY
  5
29
102
{ACAD_REACTORS
330
C
102
}
330
C
100
AcDbDictionary
281
     1
  3
2dWireframe
350
2F
  3
3D Hidden
350
31
  3
3dWireframe
350
30
  3
Basic
350
2E
  3
Brighten
350
35
  3
ColorChange
350
39
  3
Conceptual
350
32
  3
Dim
350
34
  3
Facepattern
350
38
  3
Flat
350
2A
  3
FlatWithEdges
350
2B
  3
Gouraud
350
2C
  3
GouraudWithEdges
350
2D
  3
Linepattern
350
37
  3
Realistic
350
33
  3
Thicken
350
36
  0
XRECORD
  5
D26
102
{ACAD_REACTORS
330
C
102
}
330
C
100
AcDbXrecord
280
     1
 90
        1
330
6D
  0
DICTIONARY
  5
D1D
102
{ACAD_REACTORS
330
C
102
}
330
C
100
AcDbDictionary
281
     1
  3
CANNOSCALE
350
D21
  3
CMLEADERSTYLE
350
D1F
  3
CTABLESTYLE
350
D1E
  3
LIGHTINGUNITS
350
D22
  3
MSLTSCALE
350
D20
  0
LAYOUT
  5
74
102
{ACAD_REACTORS
330
6A
102
}
330
6A
100
AcDbPlotSettings
  1

  2

  4

  6

 40
0.0
 41
0.0
 42
0.0
 43
0.0
 44
0.0
 45
0.0
 46
0.0
 47
0.0
 48
0.0
 49
0.0
140
0.0
141
0.0
142
1.0
143
1.0
 70
   688
 72
     0
 73
     0
 74
     5
  7

 75
    16
147
1.0
 76
     0
 77
     2
 78
   300
148
0.0
149
0.0
100
AcDbLayout
  1
Layout1
 70
     1
 71
     1
 10
0.0
 20
0.0
 11
12.0
 21
9.0
 12
0.0
 22
0.0
 32
0.0
 14
0.0
 24
0.0
 34
0.0
 15
0.0
 25
0.0
 35
0.0
146
0.0
 13
0.0
 23
0.0
 33
0.0
 16
1.0
 26
0.0
 36
0.0
 17
0.0
 27
1.0
 37
0.0
 76
     0
330
71
  0
LAYOUT
  5
7C
102
{ACAD_REACTORS
330
6A
102
}
330
6A
100
AcDbPlotSettings
  1

  2

  4

  6

 40
0.0
 41
0.0
 42
0.0
 43
0.0
 44
0.0
 45
0.0
 46
0.0
 47
0.0
 48
0.0
 49
0.0
140
0.0
141
0.0
142
1.0
143
1.0
 70
   688
 72
     0
 73
     0
 74
     5
  7

 75
    16
147
1.0
 76
     0
 77
     2
 78
   300
148
0.0
149
0.0
100
AcDbLayout
  1
Layout2
 70
     1
 71
     2
 10
0.0
 20
0.0
 11
12.0
 21
9.0
 12
0.0
 22
0.0
 32
0.0
 14
0.0
 24
0.0
 34
0.0
 15
0.0
 25
0.0
 35
0.0
146
0.0
 13
0.0
 23
0.0
 33
0.0
 16
1.0
 26
0.0
 36
0.0
 17
0.0
 27
1.0
 37
0.0
 76
     0
330
79
  0
LAYOUT
  5
78
102
{ACAD_REACTORS
330
6A
102
}
330
6A
100
AcDbPlotSettings
  1

  2

  4

  6

 40
0.0
 41
0.0
 42
0.0
 43
0.0
 44
0.0
 45
0.0
 46
0.0
 47
0.0
 48
0.0
 49
0.0
140
0.0
141
0.0
142
1.0
143
1.0
 70
  1712
 72
     0
 73
     0
 74
     0
  7

 75
     0
147
1.0
 76
     0
 77
     2
 78
   300
148
0.0
149
0.0
100
AcDbLayout
  1
Model
 70
     1
 71
     0
 10
0.0
 20
0.0
 11
12.0
 21
9.0
 12
0.0
 22
0.0
 32
0.0
 14
0.0
 24
0.0
 34
0.0
 15
0.0
 25
0.0
 35
0.0
146
0.0
 13
0.0
 23
0.0
 33
0.0
 16
1.0
 26
0.0
 36
0.0
 17
0.0
 27
1.0
 37
0.0
 76
     0
330
75
  0
MATERIAL
  5
19
102
{ACAD_XDICTIONARY
360
1A
102
}
102
{ACAD_REACTORS
330
10
102
}
330
10
100
AcDbMaterial
  1
ByBlock
 72
     0
 43
0.0208333333333333
 43
0.0
 43
0.0
 43
0.0
 43
0.0
 43
0.0208333333333333
 43
0.0
 43
0.0
 43
0.0
 43
0.0
 43
1.0
 43
0.0
 43
0.0
 43
0.0
 43
0.0
 43
1.0
 77
     0
 47
0.0208333333333333
 47
0.0
 47
0.0
 47
0.0
 47
0.0
 47
0.0208333333333333
 47
0.0
 47
0.0
 47
0.0
 47
0.0
 47
1.0
 47
0.0
 47
0.0
 47
0.0
 47
0.0
 47
1.0
171
     0
 49
0.0208333333333333
 49
0.0
 49
0.0
 49
0.0
 49
0.0
 49
0.0208333333333333
 49
0.0
 49
0.0
 49
0.0
 49
0.0
 49
1.0
 49
0.0
 49
0.0
 49
0.0
 49
0.0
 49
1.0
175
     0
142
0.0208333333333333
142
0.0
142
0.0
142
0.0
142
0.0
142
0.0208333333333333
142
0.0
142
0.0
142
0.0
142
0.0
142
1.0
142
0.0
142
0.0
142
0.0
142
0.0
142
1.0
179
     0
144
0.0208333333333333
144
0.0
144
0.0
144
0.0
144
0.0
144
0.0208333333333333
144
0.0
144
0.0
144
0.0
144
0.0
144
1.0
144
0.0
144
0.0
144
0.0
144
0.0
144
1.0
147
0.0208333333333333
147
0.0
147
0.0
147
0.0
147
0.0
147
0.0208333333333333
147
0.0
147
0.0
147
0.0
147
0.0
147
1.0
147
0.0
147
0.0
147
0.0
147
0.0
147
1.0
  0
MATERIAL
  5
11
102
{ACAD_XDICTIONARY
360
12
102
}
102
{ACAD_REACTORS
330
10
102
}
330
10
100
AcDbMaterial
  1
ByLayer
 72
     0
 43
0.0208333333333333
 43
0.0
 43
0.0
 43
0.0
 43
0.0
 43
0.0208333333333333
 43
0.0
 43
0.0
 43
0.0
 43
0.0
 43
1.0
 43
0.0
 43
0.0
 43
0.0
 43
0.0
 43
1.0
 77
     0
 47
0.0208333333333333
 47
0.0
 47
0.0
 47
0.0
 47
0.0
 47
0.0208333333333333
 47
0.0
 47
0.0
 47
0.0
 47
0.0
 47
1.0
 47
0.0
 47
0.0
 47
0.0
 47
0.0
 47
1.0
171
     0
 49
0.0208333333333333
 49
0.0
 49
0.0
 49
0.0
 49
0.0
 49
0.0208333333333333
 49
0.0
 49
0.0
 49
0.0
 49
0.0
 49
1.0
 49
0.0
 49
0.0
 49
0.0
 49
0.0
 49
1.0
175
     0
142
0.0208333333333333
142
0.0
142
0.0
142
0.0
142
0.0
142
0.0208333333333333
142
0.0
142
0.0
142
0.0
142
0.0
142
1.0
142
0.0
142
0.0
142
0.0
142
0.0
142
1.0
179
     0
144
0.0208333333333333
144
0.0
144
0.0
144
0.0
144
0.0
144
0.0208333333333333
144
0.0
144
0.0
144
0.0
144
0.0
144
1.0
144
0.0
144
0.0
144
0.0
144
0.0
144
1.0
147
0.0208333333333333
147
0.0
147
0.0
147
0.0
147
0.0
147
0.0208333333333333
147
0.0
147
0.0
147
0.0
147
0.0
147
1.0
147
0.0
147
0.0
147
0.0
147
0.0
147
1.0
  0
MATERIAL
  5
21
102
{ACAD_XDICTIONARY
360
22
102
}
102
{ACAD_REACTORS
330
10
102
}
330
10
100
AcDbMaterial
  1
Global
 72
     0
 43
0.0208333333333333
 43
0.0
 43
0.0
 43
0.0
 43
0.0
 43
0.0208333333333333
 43
0.0
 43
0.0
 43
0.0
 43
0.0
 43
1.0
 43
0.0
 43
0.0
 43
0.0
 43
0.0
 43
1.0
 77
     0
 47
0.0208333333333333
 47
0.0
 47
0.0
 47
0.0
 47
0.0
 47
0.0208333333333333
 47
0.0
 47
0.0
 47
0.0
 47
0.0
 47
1.0
 47
0.0
 47
0.0
 47
0.0
 47
0.0
 47
1.0
171
     0
 49
0.0208333333333333
 49
0.0
 49
0.0
 49
0.0
 49
0.0
 49
0.0208333333333333
 49
0.0
 49
0.0
 49
0.0
 49
0.0
 49
1.0
 49
0.0
 49
0.0
 49
0.0
 49
0.0
 49
1.0
175
     0
142
0.0208333333333333
142
0.0
142
0.0
142
0.0
142
0.0
142
0.0208333333333333
142
0.0
142
0.0
142
0.0
142
0.0
142
1.0
142
0.0
142
0.0
142
0.0
142
0.0
142
1.0
179
     0
144
0.0208333333333333
144
0.0
144
0.0
144
0.0
144
0.0
144
0.0208333333333333
144
0.0
144
0.0
144
0.0
144
0.0
144
1.0
144
0.0
144
0.0
144
0.0
144
0.0
144
1.0
147
0.0208333333333333
147
0.0
147
0.0
147
0.0
147
0.0
147
0.0208333333333333
147
0.0
147
0.0
147
0.0
147
0.0
147
1.0
147
0.0
147
0.0
147
0.0
147
0.0
147
1.0
  0
MLEADERSTYLE
  5
6F
102
{ACAD_REACTORS
330
6E
102
}
330
6E
100
AcDbMLeaderStyle
170
     2
171
     1
172
     0
 90
        2
 40
0.0
 41
0.0
173
     1
 91
-1056964608
340
63
 92
       -2
290
     1
 42
0.09
291
     1
 43
0.36
  3
Standard
 44
0.18
300

342
5D
174
     1
178
     6
175
     1
176
     0
 93
-1056964608
 45
0.18
292
     0
297
     0
 46
0.18
 94
-1056964608
 47
1.0
 49
1.0
140
1.0
293
     1
141
0.0
294
     1
177
     0
142
1.0
295
     0
296
     0
143
0.125
1001
ACAD_MLEADERVER
1070
     2
  0
MLINESTYLE
  5
68
102
{ACAD_REACTORS
330
67
102
}
330
67
100
AcDbMlineStyle
  2
STANDARD
 70
     0
  3

 62
   256
 51
90.0
 52
90.0
 71
     2
 49
0.5
 62
   256
  6
BYLAYER
 49
-0.5
 62
   256
  6
BYLAYER
  0
ACDBPLACEHOLDER
  5
F
102
{ACAD_REACTORS
330
E
102
}
330
E
  0
SCALE
  5
3B
102
{ACAD_REACTORS
330
3A
102
}
330
3A
100
AcDbScale
 70
     0
300
1:1
140
1.0
141
1.0
290
     1
  0
SCALE
  5
3C
102
{ACAD_REACTORS
330
3A
102
}
330
3A
100
AcDbScale
 70
     0
300
1:2
140
1.0
141
2.0
290
     0
  0
SCALE
  5
3D
102
{ACAD_REACTORS
330
3A
102
}
330
3A
100
AcDbScale
 70
     0
300
1:4
140
1.0
141
4.0
290
     0
  0
SCALE
  5
3E
102
{ACAD_REACTORS
330
3A
102
}
330
3A
100
AcDbScale
 70
     0
300
1:5
140
1.0
141
5.0
290
     0
  0
SCALE
  5
3F
102
{ACAD_REACTORS
330
3A
102
}
330
3A
100
AcDbScale
 70
     0
300
1:8
140
1.0
141
8.0
290
     0
  0
SCALE
  5
40
102
{ACAD_REACTORS
330
3A
102
}
330
3A
100
AcDbScale
 70
     0
300
1:10
140
1.0
141
10.0
290
     0
  0
SCALE
  5
41
102
{ACAD_REACTORS
330
3A
102
}
330
3A
100
AcDbScale
 70
     0
300
1:16
140
1.0
141
16.0
290
     0
  0
SCALE
  5
42
102
{ACAD_REACTORS
330
3A
102
}
330
3A
100
AcDbScale
 70
     0
300
1:20
140
1.0
141
20.0
290
     0
  0
SCALE
  5
43
102
{ACAD_REACTORS
330
3A
102
}
330
3A
100
AcDbScale
 70
     0
300
1:30
140
1.0
141
30.0
290
     0
  0
SCALE
  5
44
102
{ACAD_REACTORS
330
3A
102
}
330
3A
100
AcDbScale
 70
     0
300
1:40
140
1.0
141
40.0
290
     0
  0
SCALE
  5
45
102
{ACAD_REACTORS
330
3A
102
}
330
3A
100
AcDbScale
 70
     0
300
1:50
140
1.0
141
50.0
290
     0
  0
SCALE
  5
46
102
{ACAD_REACTORS
330
3A
102
}
330
3A
100
AcDbScale
 70
     0
300
1:100
140
1.0
141
100.0
290
     0
  0
SCALE
  5
47
102
{ACAD_REACTORS
330
3A
102
}
330
3A
100
AcDbScale
 70
     0
300
2:1
140
2.0
141
1.0
290
     0
  0
SCALE
  5
48
102
{ACAD_REACTORS
330
3A
102
}
330
3A
100
AcDbScale
 70
     0
300
4:1
140
4.0
141
1.0
290
     0
  0
SCALE
  5
49
102
{ACAD_REACTORS
330
3A
102
}
330
3A
100
AcDbScale
 70
     0
300
8:1
140
8.0
141
1.0
290
     0
  0
SCALE
  5
4A
102
{ACAD_REACTORS
330
3A
102
}
330
3A
100
AcDbScale
 70
     0
300
10:1
140
10.0
141
1.0
290
     0
  0
SCALE
  5
4B
102
{ACAD_REACTORS
330
3A
102
}
330
3A
100
AcDbScale
 70
     0
300
100:1
140
100.0
141
1.0
290
     0
  0
SCALE
  5
4C
102
{ACAD_REACTORS
330
3A
102
}
330
3A
100
AcDbScale
 70
     0
300
1/128" = 1'-0"
140
0.0078125
141
12.0
290
     0
  0
SCALE
  5
4D
102
{ACAD_REACTORS
330
3A
102
}
330
3A
100
AcDbScale
 70
     0
300
1/64" = 1'-0"
140
0.015625
141
12.0
290
     0
  0
SCALE
  5
4E
102
{ACAD_REACTORS
330
3A
102
}
330
3A
100
AcDbScale
 70
     0
300
1/32" = 1'-0"
140
0.03125
141
12.0
290
     0
  0
SCALE
  5
4F
102
{ACAD_REACTORS
330
3A
102
}
330
3A
100
AcDbScale
 70
     0
300
1/16" = 1'-0"
140
0.0625
141
12.0
290
     0
  0
SCALE
  5
50
102
{ACAD_REACTORS
330
3A
102
}
330
3A
100
AcDbScale
 70
     0
300
3/32" = 1'-0"
140
0.09375
141
12.0
290
     0
  0
SCALE
  5
51
102
{ACAD_REACTORS
330
3A
102
}
330
3A
100
AcDbScale
 70
     0
300
1/8" = 1'-0"
140
0.125
141
12.0
290
     0
  0
SCALE
  5
52
102
{ACAD_REACTORS
330
3A
102
}
330
3A
100
AcDbScale
 70
     0
300
3/16" = 1'-0"
140
0.1875
141
12.0
290
     0
  0
SCALE
  5
53
102
{ACAD_REACTORS
330
3A
102
}
330
3A
100
AcDbScale
 70
     0
300
1/4" = 1'-0"
140
0.25
141
12.0
290
     0
  0
SCALE
  5
54
102
{ACAD_REACTORS
330
3A
102
}
330
3A
100
AcDbScale
 70
     0
300
3/8" = 1'-0"
140
0.375
141
12.0
290
     0
  0
SCALE
  5
55
102
{ACAD_REACTORS
330
3A
102
}
330
3A
100
AcDbScale
 70
     0
300
1/2" = 1'-0"
140
0.5
141
12.0
290
     0
  0
SCALE
  5
56
102
{ACAD_REACTORS
330
3A
102
}
330
3A
100
AcDbScale
 70
     0
300
3/4" = 1'-0"
140
0.75
141
12.0
290
     0
  0
SCALE
  5
57
102
{ACAD_REACTORS
330
3A
102
}
330
3A
100
AcDbScale
 70
     0
300
1" = 1'-0"
140
1.0
141
12.0
290
     0
  0
SCALE
  5
58
102
{ACAD_REACTORS
330
3A
102
}
330
3A
100
AcDbScale
 70
     0
300
1-1/2" = 1'-0"
140
1.5
141
12.0
290
     0
  0
SCALE
  5
59
102
{ACAD_REACTORS
330
3A
102
}
330
3A
100
AcDbScale
 70
     0
300
3" = 1'-0"
140
3.0
141
12.0
290
     0
  0
SCALE
  5
5A
102
{ACAD_REACTORS
330
3A
102
}
330
3A
100
AcDbScale
 70
     0
300
6" = 1'-0"
140
6.0
141
12.0
290
     0
  0
SCALE
  5
5B
102
{ACAD_REACTORS
330
3A
102
}
330
3A
100
AcDbScale
 70
     0
300
1'-0" = 1'-0"
140
12.0
141
12.0
290
     0
  0
TABLESTYLE
  5
6D
102
{ACAD_XDICTIONARY
360
D23
102
}
102
{ACAD_REACTORS
330
6C
102
}
330
6C
100
AcDbTableStyle
  3
Standard
 70
     0
 71
     0
 40
0.06
 41
0.06
280
     0
281
     0
  7
Standard
140
0.18
170
     2
 62
     0
 63
     7
283
     0
274
    -2
284
     1
 64
     0
275
    -2
285
     1
 65
     0
276
    -2
286
     1
 66
     0
277
    -2
287
     1
 67
     0
278
    -2
288
     1
 68
     0
279
    -2
289
     1
 69
     0
  7
Standard
140
0.25
170
     5
 62
     0
 63
     7
283
     0
274
    -2
284
     1
 64
     0
275
    -2
285
     1
 65
     0
276
    -2
286
     1
 66
     0
277
    -2
287
     1
 67
     0
278
    -2
288
     1
 68
     0
279
    -2
289
     1
 69
     0
  7
Standard
140
0.18
170
     5
 62
     0
 63
     7
283
     0
274
    -2
284
     1
 64
     0
275
    -2
285
     1
 65
     0
276
    -2
286
     1
 66
     0
277
    -2
287
     1
 67
     0
278
    -2
288
     1
 68
     0
279
    -2
289
     1
 69
     0
  0
VISUALSTYLE
  5
2F
102
{ACAD_REACTORS
330
29
102
}
330
29
100
AcDbVisualStyle
  2
2dWireframe
 70
     4
 71
     0
 72
     2
 73
     0
 90
        0
 40
-0.6
 41
-30.0
 62
     5
 63
     7
421
 16777215
 74
     1
 91
        4
 64
     7
 65
   257
 75
     1
175
     1
 42
1.0
 92
        0
 66
   257
 43
1.0
 76
     1
 77
     6
 78
     2
 67
     7
 79
     5
170
     0
171
     0
290
     0
174
     0
 93
        1
 44
0.0
173
     0
291
     0
 45
0.0
1001
ACAD
1000
AcDbSavedByObjectVersion
1070
     0
  0
VISUALSTYLE
  5
31
102
{ACAD_REACTORS
330
29
102
}
330
29
100
AcDbVisualStyle
  2
3D Hidden
 70
     6
 71
     1
 72
     2
 73
     2
 90
        0
 40
-0.6
 41
-30.0
 62
     5
 63
     7
421
 16777215
 74
     2
 91
        2
 64
     7
 65
   257
 75
     2
175
     1
 42
40.0
 92
        0
 66
   257
 43
1.0
 76
     1
 77
     6
 78
     2
 67
     7
 79
     3
170
     0
171
     0
290
     0
174
     0
 93
        1
 44
0.0
173
     0
291
     0
 45
0.0
1001
ACAD
1000
AcDbSavedByObjectVersion
1070
     0
  0
VISUALSTYLE
  5
30
102
{ACAD_REACTORS
330
29
102
}
330
29
100
AcDbVisualStyle
  2
3dWireframe
 70
     5
 71
     0
 72
     2
 73
     0
 90
        0
 40
-0.6
 41
-30.0
 62
     5
 63
     7
421
 16777215
 74
     1
 91
        4
 64
     7
 65
   257
 75
     1
175
     1
 42
1.0
 92
        0
 66
   257
 43
1.0
 76
     1
 77
     6
 78
     2
 67
     7
 79
     5
170
     0
171
     0
290
     0
174
     0
 93
        1
 44
0.0
173
     0
291
     0
 45
0.0
1001
ACAD
1000
AcDbSavedByObjectVersion
1070
     0
  0
VISUALSTYLE
  5
2E
102
{ACAD_REACTORS
330
29
102
}
330
29
100
AcDbVisualStyle
  2
Basic
 70
     7
 71
     1
 72
     0
 73
     1
 90
        0
 40
-0.6
 41
-30.0
 62
     5
 63
     7
421
 16777215
 74
     0
 91
        4
 64
     7
 65
   257
 75
     1
175
     1
 42
1.0
 92
        8
 66
     7
 43
1.0
 76
     1
 77
     6
 78
     2
 67
     7
 79
     5
170
     0
171
     0
290
     0
174
     0
 93
        1
 44
0.0
173
     0
291
     1
 45
0.0
1001
ACAD
1000
AcDbSavedByObjectVersion
1070
     0
  0
VISUALSTYLE
  5
35
102
{ACAD_REACTORS
330
29
102
}
330
29
100
AcDbVisualStyle
  2
Brighten
 70
    12
 71
     2
 72
     2
 73
     0
 90
        0
 40
-0.6
 41
-30.0
 62
     5
 63
     7
421
 16777215
 74
     1
 91
        4
 64
     7
 65
   257
 75
     1
175
     1
 42
1.0
 92
        8
 66
     7
 43
1.0
 76
     1
 77
     6
 78
     2
 67
     7
 79
     5
170
     0
171
     0
290
     0
174
     0
 93
        1
 44
50.0
173
     0
291
     1
 45
0.0
1001
ACAD
1000
AcDbSavedByObjectVersion
1070
     0
  0
VISUALSTYLE
  5
39
102
{ACAD_REACTORS
330
29
102
}
330
29
100
AcDbVisualStyle
  2
ColorChange
 70
    16
 71
     2
 72
     2
 73
     3
 90
        0
 40
-0.6
 41
-30.0
 62
     5
 63
     8
421
  8421504
 74
     1
 91
        4
 64
     7
 65
   257
 75
     1
175
     1
 42
1.0
 92
        8
 66
     8
424
  8421504
 43
1.0
 76
     1
 77
     6
 78
     2
 67
     7
 79
     5
170
     0
171
     0
290
     0
174
     0
 93
        1
 44
0.0
173
     0
291
     1
 45
0.0
1001
ACAD
1000
AcDbSavedByObjectVersion
1070
     0
  0
VISUALSTYLE
  5
32
102
{ACAD_REACTORS
330
29
102
}
330
29
100
AcDbVisualStyle
  2
Conceptual
 70
     9
 71
     3
 72
     2
 73
     0
 90
        0
 40
-0.6
 41
-30.0
 62
     5
 63
     7
421
 16777215
 74
     2
 91
        2
 64
     7
 65
   257
 75
     1
175
     1
 42
40.0
 92
        8
 66
     7
 43
1.0
 76
     1
 77
     6
 78
     2
 67
     7
 79
     3
170
     0
171
     0
290
     0
174
     0
 93
        1
 44
0.0
173
     0
291
     0
 45
0.0
1001
ACAD
1000
AcDbSavedByObjectVersion
1070
     0
  0
VISUALSTYLE
  5
34
102
{ACAD_REACTORS
330
29
102
}
330
29
100
AcDbVisualStyle
  2
Dim
 70
    11
 71
     2
 72
     2
 73
     0
 90
        0
 40
-0.6
 41
-30.0
 62
     5
 63
     7
421
 16777215
 74
     1
 91
        4
 64
     7
 65
   257
 75
     1
175
     1
 42
1.0
 92
        8
 66
     7
 43
1.0
 76
     1
 77
     6
 78
     2
 67
     7
 79
     5
170
     0
171
     0
290
     0
174
     0
 93
        1
 44
-50.0
173
     0
291
     1
 45
0.0
1001
ACAD
1000
AcDbSavedByObjectVersion
1070
     0
  0
VISUALSTYLE
  5
38
102
{ACAD_REACTORS
330
29
102
}
330
29
100
AcDbVisualStyle
  2
Facepattern
 70
    15
 71
     2
 72
     2
 73
     0
 90
        0
 40
-0.6
 41
-30.0
 62
     5
 63
     7
421
 16777215
 74
     1
 91
        4
 64
     7
 65
   257
 75
     1
175
     1
 42
1.0
 92
        8
 66
     7
 43
1.0
 76
     1
 77
     6
 78
     2
 67
     7
 79
     5
170
     0
171
     0
290
     0
174
     0
 93
        1
 44
0.0
173
     0
291
     1
 45
0.0
1001
ACAD
1000
AcDbSavedByObjectVersion
1070
     0
  0
VISUALSTYLE
  5
2A
102
{ACAD_REACTORS
330
29
102
}
330
29
100
AcDbVisualStyle
  2
Flat
 70
     0
 71
     2
 72
     1
 73
     1
 90
        2
 40
-0.6
 41
30.0
 62
     5
 63
     7
421
 16777215
 74
     0
 91
        4
 64
     7
 65
   257
 75
     1
175
     1
 42
1.0
 92
        8
 66
     7
 43
1.0
 76
     1
 77
     6
 78
     2
 67
     7
 79
     5
170
     0
171
     0
290
     0
174
     0
 93
       13
 44
0.0
173
     0
291
     1
 45
0.0
1001
ACAD
1000
AcDbSavedByObjectVersion
1070
     0
  0
VISUALSTYLE
  5
2B
102
{ACAD_REACTORS
330
29
102
}
330
29
100
AcDbVisualStyle
  2
FlatWithEdges
 70
     1
 71
     2
 72
     1
 73
     1
 90
        2
 40
-0.6
 41
30.0
 62
     5
 63
     7
421
 16777215
 74
     1
 91
        4
 64
     7
 65
   257
 75
     1
175
     1
 42
1.0
 92
        0
 66
   257
 43
1.0
 76
     1
 77
     6
 78
     2
 67
     7
 79
     5
170
     0
171
     0
290
     0
174
     0
 93
       13
 44
0.0
173
     0
291
     1
 45
0.0
1001
ACAD
1000
AcDbSavedByObjectVersion
1070
     0
  0
VISUALSTYLE
  5
2C
102
{ACAD_REACTORS
330
29
102
}
330
29
100
AcDbVisualStyle
  2
Gouraud
 70
     2
 71
     2
 72
     2
 73
     1
 90
        2
 40
-0.6
 41
30.0
 62
     5
 63
     7
421
 16777215
 74
     0
 91
        4
 64
     7
 65
   257
 75
     1
175
     1
 42
1.0
 92
        0
 66
     7
 43
1.0
 76
     1
 77
     6
 78
     2
 67
     7
 79
     5
170
     0
171
     0
290
     0
174
     0
 93
       13
 44
0.0
173
     0
291
     1
 45
0.0
1001
ACAD
1000
AcDbSavedByObjectVersion
1070
     0
  0
VISUALSTYLE
  5
2D
102
{ACAD_REACTORS
330
29
102
}
330
29
100
AcDbVisualStyle
  2
GouraudWithEdges
 70
     3
 71
     2
 72
     2
 73
     1
 90
        2
 40
-0.6
 41
30.0
 62
     5
 63
     7
421
 16777215
 74
     1
 91
        4
 64
     7
 65
   257
 75
     1
175
     1
 42
1.0
 92
        0
 66
   257
 43
1.0
 76
     1
 77
     6
 78
     2
 67
     7
 79
     5
170
     0
171
     0
290
     0
174
     0
 93
       13
 44
0.0
173
     0
291
     1
 45
0.0
1001
ACAD
1000
AcDbSavedByObjectVersion
1070
     0
  0
VISUALSTYLE
  5
37
102
{ACAD_REACTORS
330
29
102
}
330
29
100
AcDbVisualStyle
  2
Linepattern
 70
    14
 71
     2
 72
     2
 73
     0
 90
        0
 40
-0.6
 41
-30.0
 62
     5
 63
     7
421
 16777215
 74
     1
 91
        4
 64
     7
 65
   257
 75
     7
175
     7
 42
1.0
 92
        8
 66
     7
 43
1.0
 76
     1
 77
     6
 78
     2
 67
     7
 79
     5
170
     0
171
     0
290
     0
174
     0
 93
        1
 44
0.0
173
     0
291
     1
 45
0.0
1001
ACAD
1000
AcDbSavedByObjectVersion
1070
     0
  0
VISUALSTYLE
  5
33
102
{ACAD_REACTORS
330
29
102
}
330
29
100
AcDbVisualStyle
  2
Realistic
 70
     8
 71
     2
 72
     2
 73
     0
 90
        0
 40
-0.6
 41
-30.0
 62
     5
 63
     7
421
 16777215
 74
     1
 91
        0
 64
     7
 65
   257
 75
     1
175
     1
 42
1.0
 92
        8
 66
     8
424
  7895160
 43
1.0
 76
     1
 77
     6
 78
     2
 67
     7
 79
     5
170
     0
171
     0
290
     0
174
     0
 93
       13
 44
0.0
173
     0
291
     0
 45
0.0
1001
ACAD
1000
AcDbSavedByObjectVersion
1070
     0
  0
VISUALSTYLE
  5
36
102
{ACAD_REACTORS
330
29
102
}
330
29
100
AcDbVisualStyle
  2
Thicken
 70
    13
 71
     2
 72
     2
 73
     0
 90
        0
 40
-0.6
 41
-30.0
 62
     5
 63
     7
421
 16777215
 74
     1
 91
        4
 64
     7
 65
   257
 75
     1
175
     1
 42
1.0
 92
       12
 66
     7
 43
1.0
 76
     1
 77
     6
 78
     2
 67
     7
 79
     5
170
     0
171
     0
290
     0
174
     0
 93
        1
 44
0.0
173
     0
291
     1
 45
0.0
1001
ACAD
1000
AcDbSavedByObjectVersion
1070
     0
  0
DICTIONARYVAR
  5
D21
102
{ACAD_REACTORS
330
D1D
102
}
330
D1D
100
DictionaryVariables
280
     0
  1
1:1
  0
DICTIONARYVAR
  5
D1F
102
{ACAD_REACTORS
330
D1D
102
}
330
D1D
100
DictionaryVariables
280
     0
  1
STANDARD
  0
DICTIONARYVAR
  5
D1E
102
{ACAD_REACTORS
330
D1D
102
}
330
D1D
100
DictionaryVariables
280
     0
  1
STANDARD
  0
DICTIONARYVAR
  5
D22
102
{ACAD_REACTORS
330
D1D
102
}
330
D1D
100
DictionaryVariables
280
     0
  1
2
  0
DICTIONARYVAR
  5
D20
102
{ACAD_REACTORS
330
D1D
102
}
330
D1D
100
DictionaryVariables
280
     0
  1
1
  0
DICTIONARY
  5
1A
330
19
100
AcDbDictionary
280
     1
281
     1
  3
ACAD_XREC_ROUNDTRIP
360
D28
  3
BUMPTILE
360
1C
  3
DIFFUSETILE
360
1B
  3
OPACITYTILE
360
1F
  3
REFLECTIONTILE
360
1E
  3
REFRACTIONTILE
360
20
  3
SPECULARTILE
360
1D
  0
DICTIONARY
  5
12
330
11
100
AcDbDictionary
280
     1
281
     1
  3
ACAD_XREC_ROUNDTRIP
360
D27
  3
BUMPTILE
360
14
  3
DIFFUSETILE
360
13
  3
OPACITYTILE
360
17
  3
REFLECTIONTILE
360
16
  3
REFRACTIONTILE
360
18
  3
SPECULARTILE
360
15
  0
DICTIONARY
  5
22
330
21
100
AcDbDictionary
280
     1
281
     1
  3
ACAD_XREC_ROUNDTRIP
360
D29
  3
BUMPTILE
360
24
  3
DIFFUSETILE
360
23
  3
OPACITYTILE
360
27
  3
REFLECTIONTILE
360
26
  3
REFRACTIONTILE
360
28
  3
SPECULARTILE
360
25
  0
DICTIONARY
  5
D23
330
6D
100
AcDbDictionary
280
     1
281
     1
  3
ACAD_ROUNDTRIP_2008_TABLESTYLE_CELLSTYLEMAP
360
D24
  3
ACAD_XREC_ROUNDTRIP
360
D2A
  0
XRECORD
  5
D28
102
{ACAD_REACTORS
330
1A
102
}
330
1A
100
AcDbXrecord
280
     1
102
MATERIAL
148
0.0
149
0.0
149
0.0
 93
        0
 94
      127
282
     0
 72
     0
 77
     0
171
     0
175
     0
179
     0
273
     0
  0
XRECORD
  5
1C
102
{ACAD_REACTORS
330
1A
102
}
330
1A
100
AcDbXrecord
280
     1
270
     1
271
     1
  0
XRECORD
  5
1B
102
{ACAD_REACTORS
330
1A
102
}
330
1A
100
AcDbXrecord
280
     1
270
     1
271
     1
  0
XRECORD
  5
1F
102
{ACAD_REACTORS
330
1A
102
}
330
1A
100
AcDbXrecord
280
     1
270
     1
271
     1
  0
XRECORD
  5
1E
102
{ACAD_REACTORS
330
1A
102
}
330
1A
100
AcDbXrecord
280
     1
270
     1
271
     1
  0
XRECORD
  5
20
102
{ACAD_REACTORS
330
1A
102
}
330
1A
100
AcDbXrecord
280
     1
270
     1
271
     1
  0
XRECORD
  5
1D
102
{ACAD_REACTORS
330
1A
102
}
330
1A
100
AcDbXrecord
280
     1
270
     1
271
     1
  0
XRECORD
  5
D27
102
{ACAD_REACTORS
330
12
102
}
330
12
100
AcDbXrecord
280
     1
102
MATERIAL
148
0.0
149
0.0
149
0.0
 93
        0
 94
      127
282
     0
 72
     0
 77
     0
171
     0
175
     0
179
     0
273
     0
  0
XRECORD
  5
14
102
{ACAD_REACTORS
330
12
102
}
330
12
100
AcDbXrecord
280
     1
270
     1
271
     1
  0
XRECORD
  5
13
102
{ACAD_REACTORS
330
12
102
}
330
12
100
AcDbXrecord
280
     1
270
     1
271
     1
  0
XRECORD
  5
17
102
{ACAD_REACTORS
330
12
102
}
330
12
100
AcDbXrecord
280
     1
270
     1
271
     1
  0
XRECORD
  5
16
102
{ACAD_REACTORS
330
12
102
}
330
12
100
AcDbXrecord
280
     1
270
     1
271
     1
  0
XRECORD
  5
18
102
{ACAD_REACTORS
330
12
102
}
330
12
100
AcDbXrecord
280
     1
270
     1
271
     1
  0
XRECORD
  5
15
102
{ACAD_REACTORS
330
12
102
}
330
12
100
AcDbXrecord
280
     1
270
     1
271
     1
  0
XRECORD
  5
D29
102
{ACAD_REACTORS
330
22
102
}
330
22
100
AcDbXrecord
280
     1
102
MATERIAL
148
0.0
149
0.0
149
0.0
 93
        0
 94
      127
282
     0
 72
     0
 77
     0
171
     0
175
     0
179
     0
273
     0
  0
XRECORD
  5
24
102
{ACAD_REACTORS
330
22
102
}
330
22
100
AcDbXrecord
280
     1
270
     1
271
     1
  0
XRECORD
  5
23
102
{ACAD_REACTORS
330
22
102
}
330
22
100
AcDbXrecord
280
     1
270
     1
271
     1
  0
XRECORD
  5
27
102
{ACAD_REACTORS
330
22
102
}
330
22
100
AcDbXrecord
280
     1
270
     1
271
     1
  0
XRECORD
  5
26
102
{ACAD_REACTORS
330
22
102
}
330
22
100
AcDbXrecord
280
     1
270
     1
271
     1
  0
XRECORD
  5
28
102
{ACAD_REACTORS
330
22
102
}
330
22
100
AcDbXrecord
280
     1
270
     1
271
     1
  0
XRECORD
  5
25
102
{ACAD_REACTORS
330
22
102
}
330
22
100
AcDbXrecord
280
     1
270
     1
271
     1
  0
CELLSTYLEMAP
  5
D24
102
{ACAD_REACTORS
330
D23
102
}
330
D23
100
AcDbCellStyleMap
 90
        3
300
CELLSTYLE
  1
TABLEFORMAT_BEGIN
 90
        5
170
     1
 91
        0
 92
    32768
 62
   257
 93
        1
300
CONTENTFORMAT
  1
CONTENTFORMAT_BEGIN
 90
        0
 91
        0
 92
      512
 93
        0
300

 40
0.0
140
1.0
 94
        5
 62
     0
340
5D
144
0.25
309
CONTENTFORMAT_END
171
     0
 94
        0
309
TABLEFORMAT_END
  1
CELLSTYLE_BEGIN
 90
        1
 91
        1
300
_TITLE
309
CELLSTYLE_END
300
CELLSTYLE
  1
TABLEFORMAT_BEGIN
 90
        5
170
     1
 91
        0
 92
        0
 62
   257
 93
        1
300
CONTENTFORMAT
  1
CONTENTFORMAT_BEGIN
 90
        0
 91
        0
 92
      512
 93
        0
300

 40
0.0
140
1.0
 94
        5
 62
     0
340
5D
144
0.18
309
CONTENTFORMAT_END
171
     0
 94
        0
309
TABLEFORMAT_END
  1
CELLSTYLE_BEGIN
 90
        2
 91
        1
300
_HEADER
309
CELLSTYLE_END
300
CELLSTYLE
  1
TABLEFORMAT_BEGIN
 90
        5
170
     1
 91
        0
 92
        0
 62
   257
 93
        1
300
CONTENTFORMAT
  1
CONTENTFORMAT_BEGIN
 90
        0
 91
        0
 92
      512
 93
        0
300

 40
0.0
140
1.0
 94
        2
 62
     0
340
5D
144
0.18
309
CONTENTFORMAT_END
171
     0
 94
        0
309
TABLEFORMAT_END
  1
CELLSTYLE_BEGIN
 90
        3
 91
        2
300
_DATA
309
CELLSTYLE_END
  0
XRECORD
  5
D2A
102
{ACAD_REACTORS
330
D23
102
}
330
D23
100
AcDbXrecord
280
     1
102
ACAD_ROUNDTRIP_PRE2007_TABLESTYLE
 90
      512
 91
        0
  1

 92
      512
 93
        0
  2

 94
      512
 95
        0
  3

  0
ENDSEC
  0
EOF
